蓝光高清网

搜索
开启左侧

LEGO星际大战:夏日假期(台) / The LEGO Holiday/乐高星球大战:夏日假期 4K.LEGO.Star.Wars.Summer.Vacation.2022.2160p.DSNP.WEB-DL.x265.10bit.HDR.DDP5.1-4K电影下载-5.27 GB

1080pro 发表于 2022-8-5 21:36:15 | 显示全部楼层 |阅读模式
乐高星球大战:夏日假期 豆瓣评分: 无评分
上映时间:2022年
类型:喜剧 动作 科幻 动画 奇幻 冒险 
地区:美国 
导演:肯·坎宁安
主演:海伦·萨德勒 / 杰克·格林 / 凯莉·玛丽·陈 / 奥玛·本森·米勒 / 安东尼·丹尼尔斯
画质标准:4K HDR  封装音轨:Dolby TrueHD 5.1 
简       介

  《乐高星球大战:夏日假期》将于8月5日上线Disney+。


影片参数
LEGO星际大战:夏日假期(台) / The LEGO Holiday/乐高星球大战:夏日假期4K.LEGO.Star.Wars.Summer.Vacation.2022.2160p.DSNP.WEB-DL.x265.10bit.HDR.DDP5.1-4k电影信息
Video
ID : 1
Format : HEVC
Format/Info : High Efficiency Video Coding
Format profile : Main 10@L5@High
HDR format : SMPTE ST 2086, HDR10 compatible
Codec ID : V_MPEGH/ISO/HEVC
Duration : 45 min 2 s
Bit rate : 16.5 Mb/s
Width : 3 840 pixels
Height : 2 160 pixels
Display aspect ratio : 16:9
Frame rate mode : Constant
Frame rate : 24.000 FPS
Color space : YUV
Chroma subsampling : 4:2:0
Bit depth : 10 bits
Bits/(Pixel*Frame) : 0.083
Stream size : 5.19 GiB (98%)
Language : English
Default : Yes
Forced : No
Color range : Limited
Color primaries : BT.2020
Transfer characteristics : PQ
Matrix coefficients : BT.2020 non-constant
Mastering display color primaries : BT.2020
Mastering display luminance : min: 0.0000 cd/m2, max: 1000 cd/m2


Audio
ID : 2
Format : E-AC-3
Format/Info : Enhanced AC-3
Commercial name : Dolby Digital Plus
Codec ID : A_EAC3
Duration : 45 min 2 s
Bit rate mode : Constant
Bit rate : 256 kb/s
Channel(s) : 6 channels
Channel layout : L R C LFE Ls Rs
Sampling rate : 48.0 kHz
Frame rate : 31.250 FPS (1536 SPF)
Compression mode : Lossy
Stream size : 82.5 MiB (2%)
Language : English
Service kind : Complete Main
Default : Yes
Forced : No


Text #1
ID : 3
Format : UTF-8
Codec ID : S_TEXT/UTF8
Codec ID/Info : UTF-8 Plain Text
Duration : 43 min 57 s
Bit rate : 89 b/s
Frame rate : 0.282 FPS
Count of elements : 743
Stream size : 29.0 KiB (0%)
Title : English (SDH)
Language : English
Default : No
Forced : No


Text #2
ID : 4
Format : UTF-8
Codec ID : S_TEXT/UTF8
Codec ID/Info : UTF-8 Plain Text
Duration : 44 min 23 s
Bit rate : 75 b/s
Frame rate : 0.238 FPS
Count of elements : 633
Stream size : 24.7 KiB (0%)
Title : Čeština
Language : Czech
Default : No
Forced : No






Text #22
ID : 24
Format : UTF-8
Codec ID : S_TEXT/UTF8
Codec ID/Info : UTF-8 Plain Text
Duration : 44 min 23 s
Bit rate : 80 b/s
Frame rate : 0.239 FPS
Count of elements : 636
Stream size : 26.3 KiB (0%)
Title : Türkçe
Language : Turkish
Default : No
Forced : No


Text #23
ID : 25
Format : UTF-8
Codec ID : S_TEXT/UTF8
Codec ID/Info : UTF-8 Plain Text
Duration : 44 min 23 s
Bit rate : 68 b/s
Frame rate : 0.239 FPS
Count of elements : 637
Stream size : 22.3 KiB (0%)
Title : Chinese (Hong Kong)
Language : Chinese
Default : No
Forced : No


Text #24
ID : 26
Format : UTF-8
Codec ID : S_TEXT/UTF8
Codec ID/Info : UTF-8 Plain Text
Duration : 44 min 23 s
Bit rate : 65 b/s
Frame rate : 0.239 FPS
Count of elements : 636
Stream size : 21.3 KiB (0%)
Title : Chinese (Traditional)
Language : Chinese
Default : No
Forced : No


Text #25
ID : 27
Format : UTF-8
Codec ID : S_TEXT/UTF8
Codec ID/Info : UTF-8 Plain Text
Duration : 44 min 23 s
Bit rate : 73 b/s
Frame rate : 0.239 FPS
Count of elements : 636
Stream size : 24.0 KiB (0%)
Title : Chinese (Simplified)
Language : Chinese
Default : No
Forced : No


蓝光高清网提示您 点击下方附件名称 即可开始下载


多版本下载时请注意区分


LEGO星际大战:夏日假期(台) / The LEGO Holiday/乐高星球大战:夏日假期4K.LEGO.Star.Wars.Summer.Vacation.2022.2160p.DSNP.WEB-DL.x265.10bit.HDR.DDP5.1-4K电影下载

乐高星球大战:夏日假期4K.LEGO.Star.Wars.Summer.Vacation.2022.2160p.DSNP.WEB-DL.x265.10bit.HDR.DDP5.1-简繁中字【4K HDR 5.27 GB】

乐高星球大战:夏日假期4K.LEGO.Star.Wars.Summer.Vacation.2022.2160p.DSNP.WEB-DL.x265.10bit.HDR.DDP5.1-SALT.torrent ( 13.95 KB )



乐高星球大战:夏日假期4K.LEGO.Star.Wars.Summer.Vacation.2022.2160p.DSNP.WEB-DL.DDP5.1.DV.MP4.x265 【4K 杜比视界 5.27 GB 】

乐高星球大战:夏日假期4KLEGO.Star.Wars.Summer.Vacation.2022.2160p.DSNP.WEB-DL.DDP5.1.DV.MP4.x265-DVSUX.torrent ( 13.88 KB )



乐高星球大战:夏日假期4K.LEGO.Star.Wars.Summer.Vacation.2022.2160p.DSNP.WEB-DL.DDP5.1.DV.MKV.x265【4K 杜比视界 5.27 GB 】

乐高星球大战:夏日假期4KLEGO.Star.Wars.Summer.Vacation.2022.2160p.DSNP.WEB-DL.DDP5.1.DV.MKV.x265-SALT.torrent ( 13.94 KB )




回复

使用道具 举报

全部回复2 显示全部楼层
PCHUN 发表于 2022-8-6 00:27:35 | 显示全部楼层
Thanks for sharing
回复 支持 反对

使用道具 举报

gdlmxia 发表于 2022-8-7 08:48:48 | 显示全部楼层
太好啦&萬分感謝版主的無私發佈分享%
回复 支持 反对

使用道具 举报

发表回复

您需要登录后才可以回帖 登录 | 立即注册

本版积分规则

联系客服 关注微信 下载APP 返回顶部 返回列表