蓝光高清网

搜索
开启左侧

[剧情] 《雄心万丈 The.Whistle.at.Eaton.Falls.1951.1080p.BluRay.x264-BiPOLAR 10.82GB》迅雷下载_BT种子下载_蓝光高清 - 蓝光电影网

蓝鸟 发表于 2022-8-5 21:44:48 | 显示全部楼层 |阅读模式

《雄心万丈 The.Whistle.at.Eaton.Falls.1951.1080p.BluRay.x264-BiPOLAR 10.82GB》迅雷下载_BT种子下载_蓝 ...

《雄心万丈 The.Whistle.at.Eaton.Falls.1951.1080p.BluRay.x264-BiPOLAR 10.82GB》迅雷下载_BT种子下载_蓝 ...


标  题 雄心万丈
片  名 The Whistle at Eaton Falls
年  代 1951
产  地 美国
类  别 剧情
语  言 英语
上映日期 1951
IMDb评分 6.8/10 (269人评价)
片  长 96 分钟
导  演 罗伯特·西奥德梅克 Robert Siodmak
演  员 劳埃德·布里吉斯 Lloyd Bridges
       多萝西·吉许 Dorothy Gish
       卡尔顿·卡朋特 Carleton Carpenter
       莫瑞·汉密尔顿 Murray Hamilton
       戴安娜·道格拉斯 Diana Douglas
       安妮·弗朗西丝 Anne Francis
       安妮西摩 Anne Seymour
       欧内斯特·博格宁 Ernest Borgnine
       阿瑟·奥康纳 Arthur O''Connell
       多罗美瑞恩德 Doro Merande
       Lenore Lonergan Lenore Lonergan
       James Nolan James Nolan
       Helen Shields Helen Shields
       Victor Sutherland Victor Sutherland
       Joseph Sullivan Joseph Sullivan
       Donald McKee Donald McKee
       Russell Hardie Russell Hardie
       Parker Fennelly Parker Fennelly
       詹姆斯·韦斯特菲尔德 James Westerfield
       洛塔尔·沃尔夫 Lothar Wolff
       路易斯·德·罗什蒙 Louis De Rochemont
       路易斯·阿普尔鲍姆 Louis Applebaum
       约瑟夫·C·布伦 Joseph C. Brun
       安杰洛·罗斯 Angelo Ross


影片参数
  1. Video
  2. ID                                       : 1
  3. Format                                   : AVC
  4. Format/Info                              : Advanced Video Codec
  5. Format profile                           : [email protected]
  6. Format settings                          : CABAC / 5 Ref Frames
  7. Format settings, CABAC                   : Yes
  8. Format settings, Reference frames        : 5 frames
  9. Codec ID                                 : V_MPEG4/ISO/AVC
  10. Duration                                 : 1 h 36 min
  11. Bit rate                                 : 15.4 Mb/s
  12. Width                                    : 1 440 pixels
  13. Height                                   : 1 080 pixels
  14. Display aspect ratio                     : 4:3
  15. Frame rate mode                          : Constant
  16. Frame rate                               : 23.976 (24000/1001/189150) FPS
  17. Color space                              : YUV
  18. Chroma subsampling                       : 4:2:0
  19. Bit depth                                : 8 bits
  20. Scan type                                : Progressive
  21. Bits/(Pixel*Frame)                       : 0.413
  22. Stream size                              : 10.3 GiB (96%)
  23. Writing library                          : x264 core 164 r3095 baee400
  24. Encoding settings                        : cabac=1 / ref=5 / deblock=1:-3:-3 / analyse=0x3:0x133 / me=umh / subme=10 / psy=1 / psy_rd=1.00:0.15 / mixed_ref=1 / me_range=24 / chroma_me=1 / trellis=2 / 8x8dct=1 / cqm=0 / deadzone=21,11 / fast_pskip=1 / chroma_qp_offset=-3 / threads=18 / lookahead_threads=3 / sliced_threads=0 / nr=0 / decimate=1 / interlaced=0 / bluray_compat=0 / constrained_intra=0 / bframes=8 / b_pyramid=2 / b_adapt=2 / b_bias=0 / direct=3 / weightb=1 / open_gop=0 / weightp=2 / keyint=250 / keyint_min=23 / scenecut=40 / intra_refresh=0 / rc_lookahead=60 / rc=crf / mbtree=1 / crf=17.0 / qcomp=0.60 / qpmin=0 / qpmax=69 / qpstep=4 / ip_ratio=1.40 / aq=3:0.50
  25. Language                                 : English
  26. Default                                  : Yes
  27. Forced                                   : No
  28. Color range                              : Limited
  29. Matrix coefficients                      : BT.709

  30. Audio #1
  31. ID                                       : 2
  32. Format                                   : FLAC
  33. Format/Info                              : Free Lossless Audio Codec
  34. Codec ID                                 : A_FLAC
  35. Duration                                 : 1 h 36 min
  36. Bit rate mode                            : Variable
  37. Bit rate                                 : 603 kb/s
  38. Channel(s)                               : 1 channel
  39. Channel layout                           : C
  40. Sampling rate                            : 48.0 kHz
  41. Frame rate                               : 11.719 FPS (4096 SPF)
  42. Bit depth                                : 24 bits
  43. Compression mode                         : Lossless
  44. Stream size                              : 415 MiB (4%)
  45. Writing library                          : libFLAC 1.2.1 (UTC 2007-09-17)
  46. Language                                 : English
  47. Default                                  : Yes
  48. Forced                                   : No

  49. Audio #2
  50. ID                                       : 3
  51. Format                                   : AAC LC
  52. Format/Info                              : Advanced Audio Codec Low Complexity
  53. Codec ID                                 : A_AAC-2
  54. Duration                                 : 1 h 36 min
  55. Bit rate                                 : 90.6 kb/s
  56. Channel(s)                               : 2 channels
  57. Channel layout                           : L R
  58. Sampling rate                            : 48.0 kHz
  59. Frame rate                               : 46.875 FPS (1024 SPF)
  60. Compression mode                         : Lossy
  61. Delay relative to video                  : 9 ms
  62. Stream size                              : 62.3 MiB (1%)
  63. Title                                    : English Commentary by Alan K. Rode
  64. Language                                 : English
  65. Default                                  : No
  66. Forced                                   : No

  67. Text #1
  68. ID                                       : 4
  69. Format                                   : UTF-8
  70. Codec ID                                 : S_TEXT/UTF8
  71. Codec ID/Info                            : UTF-8 Plain Text
  72. Duration                                 : 1 h 33 min
  73. Bit rate                                 : 71 b/s
  74. Count of elements                        : 1483
  75. Stream size                              : 49.1 KiB (0%)
  76. Title                                    : English
  77. Language                                 : English
  78. Default                                  : No
  79. Forced                                   : No

  80. Text #2
  81. ID                                       : 5
  82. Format                                   : UTF-8
  83. Codec ID                                 : S_TEXT/UTF8
  84. Codec ID/Info                            : UTF-8 Plain Text
  85. Duration                                 : 1 h 35 min
  86. Bit rate                                 : 77 b/s
  87. Count of elements                        : 1663
  88. Stream size                              : 53.8 KiB (0%)
  89. Title                                    : English SDH
  90. Language                                 : English
  91. Default                                  : No
  92. Forced                                   : No

  93. Text #3
  94. ID                                       : 6
  95. Format                                   : PGS
  96. Muxing mode                              : zlib
  97. Codec ID                                 : S_HDMV/PGS
  98. Codec ID/Info                            : Picture based subtitle format used on BDs/HD-DVDs
  99. Duration                                 : 1 h 35 min
  100. Bit rate                                 : 18.4 kb/s
  101. Count of elements                        : 3326
  102. Stream size                              : 12.5 MiB (0%)
  103. Title                                    : English SDH
  104. Language                                 : English
  105. Default                                  : No
  106. Forced                                   : No

  107. Menu
  108. 00:00:00.000                             : en:00:00:00.000
  109. 00:01:20.330                             : en:00:01:20.330
  110. 00:15:57.206                             : en:00:15:57.206
  111. 00:28:00.387                             : en:00:28:00.387
  112. 00:39:08.137                             : en:00:39:08.137
  113. 00:51:46.228                             : en:00:51:46.228
  114. 01:04:54.599                             : en:01:04:54.599
  115. 01:15:22.351                             : en:01:15:22.351
  116. 01:25:54.941                             : en:01:25:54.941
复制代码

《雄心万丈 The.Whistle.at.Eaton.Falls.1951.1080p.BluRay.x264-BiPOLAR 10.82GB》迅雷下载_BT种子下载_蓝 ...

《雄心万丈 The.Whistle.at.Eaton.Falls.1951.1080p.BluRay.x264-BiPOLAR 10.82GB》迅雷下载_BT种子下载_蓝 ...



蓝光高清网提示您 点击下方附件即可下载

《雄心万丈 The.Whistle.at.Eaton.Falls.1951.1080p.BluRay.x264-BiPOLAR 10.82GB》迅雷下载_BT种子下载_蓝光高清 - 蓝光电影网

The.Whistle.at.Eaton.Falls.1951.1080p.BluRay.x264-BiPOLAR.torrent ( 14.3 KB )

加入蓝光高清网VIP会员  无限制下载本站所有资源---点这里

资源下载、资源播放、字幕使用、无法下载等常见问题---点这里
回复

使用道具 举报

全部回复0 显示全部楼层

发表回复

您需要登录后才可以回帖 登录 | 立即注册

本版积分规则

联系客服 关注微信 下载APP 返回顶部 返回列表