蓝光高清网

搜索
开启左侧

[剧情] 《圣女贞德的审判 The.Trial.of.Joan.of.Arc.1962.1080p.BluRay.x264-USURY 7.91GB》迅雷下载_BT种子下载_蓝光高清 - 蓝光电影网

蓝鸟 发表于 2022-8-5 21:45:12 | 显示全部楼层 |阅读模式

《圣女贞德的审判 The.Trial.of.Joan.of.Arc.1962.1080p.BluRay.x264-USURY 7.91GB》迅雷下载_BT种子下载_ ...

《圣女贞德的审判 The.Trial.of.Joan.of.Arc.1962.1080p.BluRay.x264-USURY 7.91GB》迅雷下载_BT种子下载_ ...


标  题 圣女贞德的审判
译  名 The Trial of Joan of Arc
片  名 Procès de Jeanne d''Arc
年  代 1962
产  地 法国
类  别 剧情 / 战争
语  言 法语 / 英语
上映日期 1962-05-30
IMDb评分 7.5/10 (4671人评价)
豆瓣评分 7.9/10 (2131人评价)
片  长 65 分钟
导  演 罗伯特·布列松 Robert Bresson
编  剧 罗伯特·布列松 Robert Bresson
演  员 弗洛朗丝·德莱 Florence Delay
       Donald O''Brien Donald O''Brien
       迈克尔·威廉斯 Michael Williams
       让-克洛德·富尔诺 Jean-Claude Fourneau
       阿涅丝·德拉艾 Agnès Delahaie
       莱昂斯-亨利·布雷尔 Léonce-Henri Burel
       Lucilla Mussini Lucilla Mussini
       Serge Roullet Serge Roullet
       雨果·圣地亚哥 Hugo Santiago
标  签 法国 / 罗伯特·布列松 / 布列松 / 宗教 / 法国电影 / 1962 / RobertBresson / 1960s

简  介

羅伯特.布列松的結構主義代表作,Ms.Florence (《夜行列車》)主演,榮獲嘎納電影節評委會大獎、人道精神獎。本片是影史上第4部根據聖女貞德傳奇改編的影片,是布列松繼《越獄者》、《扒手》后,在結構主義及簡約風格的特色上最圓熟的作品,聖女貞德的含冤莫辨,透過導演豐富的電影語言說得十分清楚,布列松一向重視電影的聲音、影響、語言及結構的作用,本片可以説是體現他這個電影意念的重要作品,他說:“儅我製作《聖女貞德的審判》時,我要求我所挑選的女孩一刻也不要想她曾進或可以是貞德,僅此而已。”


影片参数
  1. Video
  2. ID                                       : 1
  3. Format                                   : AVC
  4. Format/Info                              : Advanced Video Codec
  5. Format profile                           : [email protected]
  6. Format settings                          : CABAC / 4 Ref Frames
  7. Format settings, CABAC                   : Yes
  8. Format settings, Reference frames        : 4 frames
  9. Codec ID                                 : V_MPEG4/ISO/AVC
  10. Duration                                 : 1 h 4 min
  11. Bit rate                                 : 17.0 Mb/s
  12. Width                                    : 1 800 pixels
  13. Height                                   : 1 080 pixels
  14. Display aspect ratio                     : 5:3
  15. Frame rate mode                          : Constant
  16. Frame rate                               : 24.000 FPS
  17. Color space                              : YUV
  18. Chroma subsampling                       : 4:2:0
  19. Bit depth                                : 8 bits
  20. Scan type                                : Progressive
  21. Bits/(Pixel*Frame)                       : 0.365
  22. Stream size                              : 7.65 GiB (97%)
  23. Writing library                          : x264 core 164 r3095 baee400
  24. Encoding settings                        : cabac=1 / ref=4 / deblock=1:-3:-3 / analyse=0x3:0x133 / me=umh / subme=10 / psy=1 / psy_rd=1.00:0.15 / mixed_ref=1 / me_range=24 / chroma_me=1 / trellis=2 / 8x8dct=1 / cqm=0 / deadzone=21,11 / fast_pskip=1 / chroma_qp_offset=-3 / threads=18 / lookahead_threads=3 / sliced_threads=0 / nr=0 / decimate=1 / interlaced=0 / bluray_compat=0 / constrained_intra=0 / bframes=8 / b_pyramid=2 / b_adapt=2 / b_bias=0 / direct=3 / weightb=1 / open_gop=0 / weightp=2 / keyint=250 / keyint_min=24 / scenecut=40 / intra_refresh=0 / rc_lookahead=60 / rc=crf / mbtree=1 / crf=17.5 / qcomp=0.60 / qpmin=0 / qpmax=69 / qpstep=4 / ip_ratio=1.40 / aq=3:0.50
  25. Language                                 : English
  26. Default                                  : Yes
  27. Forced                                   : No
  28. Color range                              : Limited
  29. Matrix coefficients                      : BT.709

  30. Audio
  31. ID                                       : 2
  32. Format                                   : FLAC
  33. Format/Info                              : Free Lossless Audio Codec
  34. Codec ID                                 : A_FLAC
  35. Duration                                 : 1 h 4 min
  36. Bit rate mode                            : Variable
  37. Bit rate                                 : 577 kb/s
  38. Channel(s)                               : 2 channels
  39. Channel layout                           : L R
  40. Sampling rate                            : 48.0 kHz
  41. Frame rate                               : 11.719 FPS (4096 SPF)
  42. Bit depth                                : 24 bits
  43. Compression mode                         : Lossless
  44. Stream size                              : 265 MiB (3%)
  45. Writing library                          : libFLAC 1.2.1 (UTC 2007-09-17)
  46. Language                                 : French
  47. Default                                  : Yes
  48. Forced                                   : No

  49. Text #1
  50. ID                                       : 3
  51. Format                                   : UTF-8
  52. Codec ID                                 : S_TEXT/UTF8
  53. Codec ID/Info                            : UTF-8 Plain Text
  54. Duration                                 : 1 h 0 min
  55. Bit rate                                 : 52 b/s
  56. Count of elements                        : 644
  57. Stream size                              : 23.5 KiB (0%)
  58. Title                                    : English forced
  59. Language                                 : English
  60. Default                                  : Yes
  61. Forced                                   : Yes

  62. Text #2
  63. ID                                       : 4
  64. Format                                   : UTF-8
  65. Codec ID                                 : S_TEXT/UTF8
  66. Codec ID/Info                            : UTF-8 Plain Text
  67. Duration                                 : 1 h 0 min
  68. Bit rate                                 : 54 b/s
  69. Count of elements                        : 659
  70. Stream size                              : 24.1 KiB (0%)
  71. Title                                    : English
  72. Language                                 : English
  73. Default                                  : No
  74. Forced                                   : No

  75. Text #3
  76. ID                                       : 5
  77. Format                                   : UTF-8
  78. Codec ID                                 : S_TEXT/UTF8
  79. Codec ID/Info                            : UTF-8 Plain Text
  80. Duration                                 : 53 min 21 s
  81. Bit rate                                 : 3 b/s
  82. Count of elements                        : 43
  83. Stream size                              : 1.35 KiB (0%)
  84. Title                                    : French forced
  85. Language                                 : French
  86. Default                                  : No
  87. Forced                                   : No

  88. Text #4
  89. ID                                       : 6
  90. Format                                   : PGS
  91. Muxing mode                              : zlib
  92. Codec ID                                 : S_HDMV/PGS
  93. Codec ID/Info                            : Picture based subtitle format used on BDs/HD-DVDs
  94. Duration                                 : 53 min 21 s
  95. Bit rate                                 : 729 b/s
  96. Count of elements                        : 86
  97. Stream size                              : 285 KiB (0%)
  98. Title                                    : French forced
  99. Language                                 : French
  100. Default                                  : No
  101. Forced                                   : No

  102. Text #5
  103. ID                                       : 7
  104. Format                                   : UTF-8
  105. Codec ID                                 : S_TEXT/UTF8
  106. Codec ID/Info                            : UTF-8 Plain Text
  107. Duration                                 : 1 h 3 min
  108. Bit rate                                 : 69 b/s
  109. Count of elements                        : 800
  110. Stream size                              : 32.3 KiB (0%)
  111. Title                                    : French SDH
  112. Language                                 : French
  113. Default                                  : No
  114. Forced                                   : No

  115. Text #6
  116. ID                                       : 8
  117. Format                                   : PGS
  118. Muxing mode                              : zlib
  119. Codec ID                                 : S_HDMV/PGS
  120. Codec ID/Info                            : Picture based subtitle format used on BDs/HD-DVDs
  121. Duration                                 : 1 h 3 min
  122. Bit rate                                 : 13.3 kb/s
  123. Count of elements                        : 1600
  124. Stream size                              : 6.09 MiB (0%)
  125. Title                                    : French SDH
  126. Language                                 : French
  127. Default                                  : No
  128. Forced                                   : No

  129. Text #7
  130. ID                                       : 9
  131. Format                                   : UTF-8
  132. Codec ID                                 : S_TEXT/UTF8
  133. Codec ID/Info                            : UTF-8 Plain Text
  134. Duration                                 : 1 h 0 min
  135. Bit rate                                 : 57 b/s
  136. Count of elements                        : 670
  137. Stream size                              : 25.8 KiB (0%)
  138. Title                                    : German
  139. Language                                 : German
  140. Default                                  : No
  141. Forced                                   : No

  142. Text #8
  143. ID                                       : 10
  144. Format                                   : UTF-8
  145. Codec ID                                 : S_TEXT/UTF8
  146. Codec ID/Info                            : UTF-8 Plain Text
  147. Duration                                 : 1 h 0 min
  148. Bit rate                                 : 62 b/s
  149. Count of elements                        : 705
  150. Stream size                              : 28.0 KiB (0%)
  151. Title                                    : Italian
  152. Language                                 : Italian
  153. Default                                  : No
  154. Forced                                   : No

  155. Text #9
  156. ID                                       : 11
  157. Format                                   : UTF-8
  158. Codec ID                                 : S_TEXT/UTF8
  159. Codec ID/Info                            : UTF-8 Plain Text
  160. Duration                                 : 1 h 0 min
  161. Bit rate                                 : 62 b/s
  162. Count of elements                        : 653
  163. Stream size                              : 28.0 KiB (0%)
  164. Title                                    : Portuguese
  165. Language                                 : Portuguese
  166. Default                                  : No
  167. Forced                                   : No

  168. Text #10
  169. ID                                       : 12
  170. Format                                   : UTF-8
  171. Codec ID                                 : S_TEXT/UTF8
  172. Codec ID/Info                            : UTF-8 Plain Text
  173. Duration                                 : 1 h 0 min
  174. Bit rate                                 : 59 b/s
  175. Count of elements                        : 697
  176. Stream size                              : 26.5 KiB (0%)
  177. Title                                    : Spanish
  178. Language                                 : Spanish
  179. Default                                  : No
  180. Forced                                   : No

  181. Text #11
  182. ID                                       : 13
  183. Format                                   : UTF-8
  184. Codec ID                                 : S_TEXT/UTF8
  185. Codec ID/Info                            : UTF-8 Plain Text
  186. Duration                                 : 1 h 0 min
  187. Bit rate                                 : 75 b/s
  188. Count of elements                        : 690
  189. Stream size                              : 33.7 KiB (0%)
  190. Title                                    : Turkish
  191. Language                                 : Turkish
  192. Default                                  : No
  193. Forced                                   : No

  194. Menu
  195. 00:00:00.000                             : en:00:00:00.000
  196. 00:10:11.458                             : en:00:10:11.458
  197. 00:21:46.625                             : en:00:21:46.625
  198. 00:32:31.792                             : en:00:32:31.792
  199. 00:41:44.875                             : en:00:41:44.875
  200. 00:50:58.667                             : en:00:50:58.667
复制代码



蓝光高清网提示您 点击下方附件即可下载

《圣女贞德的审判 The.Trial.of.Joan.of.Arc.1962.1080p.BluRay.x264-USURY 7.91GB》迅雷下载_BT种子下载_蓝光高清 - 蓝光电影网

The.Trial.of.Joan.of.Arc.1962.1080p.BluRay.x264-USURY.torrent ( 20.53 KB )

加入蓝光高清网VIP会员  无限制下载本站所有资源---点这里

资源下载、资源播放、字幕使用、无法下载等常见问题---点这里
回复

使用道具 举报

全部回复1 显示全部楼层
wangzhang3手机认证 发表于 5 天前 | 显示全部楼层
支持发片,谢谢分享
回复 支持 反对

使用道具 举报

发表回复

您需要登录后才可以回帖 登录 | 立即注册

本版积分规则

联系客服 关注微信 下载APP 返回顶部 返回列表