蓝光高清网

搜索
开启左侧

[悬疑] 《验收测试 The.Beta.Test.2021.1080p.BluRay.x264-SCARE 7.78GB》迅雷下载_BT种子下载_蓝光高清 - 蓝光电影网

蓝鸟 发表于 2022-8-5 21:47:44 | 显示全部楼层 |阅读模式

《验收测试 The.Beta.Test.2021.1080p.BluRay.x264-SCARE 7.78GB》迅雷下载_BT种子下载_蓝光高清 - 蓝光电 ...

《验收测试 The.Beta.Test.2021.1080p.BluRay.x264-SCARE 7.78GB》迅雷下载_BT种子下载_蓝光高清 - 蓝光电 ...


标  题 验收测试
译  名 贝塔测试
片  名 The Beta Test
年  代 2021
产  地 美国
类  别 悬疑 / 惊悚 / 恐怖 / 犯罪
语  言 英语 / 瑞典语 / 汉语普通话
上映日期 2021-06-11(翠贝卡电影节) / 2021-11-05(美国)
IMDb评分 6.2/10 (2207人评价)
豆瓣评分 4.8/10 (342人评价)
片  长 91分钟
导  演 吉姆·卡明斯 Jim Cummings
       PJ·麦凯布 PJ McCabe
编  剧 吉姆·卡明斯 Jim Cummings
       PJ·麦凯布 PJ McCabe
演  员 吉姆·卡明斯 Jim Cummings
       克里斯蒂安·希尔伯格 Christian Hillborg
       奥利维亚·格雷斯·阿普尔盖特 Olivia Grace Applegate
       基斯·鲍威尔 Keith Powell
       维吉尼亚·纽科姆 Virginia Newcomb
       杰西·巴尔 Jessie Barr
标  签 2021 / 悬疑 / 美国 / 惊悚 / 犯罪 / 美国电影 / 电影 / 剧情

简  介

一位已婚的好莱坞特工收到一封关于匿名性接触的神秘信件,并陷入了一个充满谎言、不忠和数字数据的险恶世界。


影片参数
  1. Video
  2. ID                                       : 1
  3. Format                                   : AVC
  4. Format/Info                              : Advanced Video Codec
  5. Format profile                           : [email protected]
  6. Format settings                          : CABAC / 5 Ref Frames
  7. Format settings, CABAC                   : Yes
  8. Format settings, Reference frames        : 5 frames
  9. Codec ID                                 : V_MPEG4/ISO/AVC
  10. Duration                                 : 1 h 33 min
  11. Bit rate                                 : 8 886 kb/s
  12. Width                                    : 1 914 pixels
  13. Height                                   : 824 pixels
  14. Display aspect ratio                     : 2.35:1
  15. Frame rate mode                          : Constant
  16. Frame rate                               : 23.976 (24000/1001/189150) FPS
  17. Color space                              : YUV
  18. Chroma subsampling                       : 4:2:0
  19. Bit depth                                : 8 bits
  20. Scan type                                : Progressive
  21. Bits/(Pixel*Frame)                       : 0.235
  22. Stream size                              : 5.79 GiB (74%)
  23. Writing library                          : x264 core 164 r3095 baee400
  24. Encoding settings                        : cabac=1 / ref=5 / deblock=1:-3:-3 / analyse=0x3:0x133 / me=umh / subme=10 / psy=1 / psy_rd=1.20:0.00 / mixed_ref=1 / me_range=24 / chroma_me=1 / trellis=2 / 8x8dct=1 / cqm=0 / deadzone=21,11 / fast_pskip=0 / chroma_qp_offset=-2 / threads=24 / lookahead_threads=4 / sliced_threads=0 / nr=0 / decimate=0 / interlaced=0 / bluray_compat=0 / constrained_intra=0 / bframes=8 / b_pyramid=2 / b_adapt=2 / b_bias=0 / direct=3 / weightb=1 / open_gop=0 / weightp=2 / keyint=250 / keyint_min=23 / scenecut=40 / intra_refresh=0 / rc_lookahead=60 / rc=crf / mbtree=1 / crf=16.0 / qcomp=0.60 / qpmin=0 / qpmax=69 / qpstep=4 / ip_ratio=1.40 / aq=3:0.90
  25. Default                                  : Yes
  26. Forced                                   : No
  27. Color range                              : Limited
  28. Matrix coefficients                      : BT.709

  29. Audio
  30. ID                                       : 2
  31. Format                                   : DTS XLL
  32. Format/Info                              : Digital Theater Systems
  33. Commercial name                          : DTS-HD Master Audio
  34. Codec ID                                 : A_DTS
  35. Duration                                 : 1 h 33 min
  36. Bit rate mode                            : Variable
  37. Bit rate                                 : 3 029 kb/s
  38. Channel(s)                               : 6 channels
  39. Channel layout                           : C L R Ls Rs LFE
  40. Sampling rate                            : 48.0 kHz
  41. Frame rate                               : 93.750 FPS (512 SPF)
  42. Bit depth                                : 24 bits
  43. Compression mode                         : Lossless
  44. Stream size                              : 1.98 GiB (25%)
  45. Language                                 : English
  46. Default                                  : Yes
  47. Forced                                   : No

  48. Text
  49. ID                                       : 3
  50. Format                                   : PGS
  51. Muxing mode                              : zlib
  52. Codec ID                                 : S_HDMV/PGS
  53. Codec ID/Info                            : Picture based subtitle format used on BDs/HD-DVDs
  54. Duration                                 : 1 h 30 min
  55. Bit rate                                 : 30.8 kb/s
  56. Count of elements                        : 2996
  57. Stream size                              : 19.8 MiB (0%)
  58. Title                                    : SDH
  59. Language                                 : English
  60. Default                                  : No
  61. Forced                                   : No

  62. Menu
  63. 00:00:00.000                             : Chapter 01
  64. 00:13:12.250                             : Chapter 02
  65. 00:28:29.958                             : Chapter 03
  66. 00:40:30.720                             : Chapter 04
  67. 00:53:05.974                             : Chapter 05
  68. 01:05:18.623                             : Chapter 06
  69. 01:21:11.992                             : Chapter 07
  70. 01:30:00.353                             : Chapter 08
  71. 01:33:21.638                             : Chapter 09
复制代码



蓝光高清网提示您 点击下方附件即可下载

《验收测试 The.Beta.Test.2021.1080p.BluRay.x264-SCARE 7.78GB》迅雷下载_BT种子下载_蓝光高清 - 蓝光电影网

The.Beta.Test.2021.1080p.BluRay.x264-SCARE.torrent ( 20.17 KB )

加入蓝光高清网VIP会员  无限制下载本站所有资源---点这里

资源下载、资源播放、字幕使用、无法下载等常见问题---点这里
回复

使用道具 举报

全部回复1 显示全部楼层
wangzhang3手机认证 发表于 2022-8-7 20:28:08 | 显示全部楼层
楼主辛苦了,谢谢分享
回复 支持 反对

使用道具 举报

发表回复

您需要登录后才可以回帖 登录 | 立即注册

本版积分规则

联系客服 关注微信 下载APP 返回顶部 返回列表