本站已运行

蓝光高清网

搜索
开启左侧

[剧情] 《我是一部照相机 I.Am.a.Camera.1955.1080p.BluRay.x264-ORBS 11.68GB》迅雷下载_4kii.com网 - 4kii.com

蓝鸟 发表于 2022-8-15 15:25:32 | 显示全部楼层 |阅读模式

《我是一部照相机 I.Am.a.Camera.1955.1080p.BluRay.x264-ORBS 11.68GB》迅雷下载_BT种子下载_蓝光高清 - ...

《我是一部照相机 I.Am.a.Camera.1955.1080p.BluRay.x264-ORBS 11.68GB》迅雷下载_BT种子下载_蓝光高清 -  ...


标  题 我是一部照相机
译  名 小楼春醒
片  名 I Am a Camera
年  代 1955
产  地 英国
类  别 剧情
语  言 英语
上映日期 1955-12-02
IMDb评分 6.4/10 (586人评价)
片  长 USA: 98 分钟
导  演 亨利·科尼利厄斯 Henry Cornelius
编  剧 克里斯托弗·艾什伍德 Christopher Isherwood
       约翰·范·德鲁登 John Van Druten
       约翰·科利尔 John Collier
演  员 理查德·沃迪斯 Richard Wattis
       Ina De La Haye Ina De La Haye
       Tutte Lemkow Tutte Lemkow
       Charles Mosconi Charles Mosconi
       Clifford A. Pellow Clifford A. Pellow
       希德·雷蒙德 Sid Raymond
       莱娅·塞德尔 Lea Seidl
       哈罗德·西登斯 Harold Siddons
       罗恩·兰德尔 Ron Randell
       弗雷德里克·瓦尔克 Frederick Valk
       杰弗里·邓恩 Geoffrey Dunn
       Charles Andre Charles Andre
       劳伦斯·哈维 Laurence Harvey
       朱丽·哈里斯 Julie Harris
       大卫·柯索夫 David Kossoff
       谢利·温特斯 Shelley Winters
       安东·迪夫伦 Anton Diffring
       文斯·爱德华兹 Vince Edwards
       Charles McDaniel Charles McDaniel
       Julia Arnall Julia Arnall
       帕特里克·麦高汉 Patrick McGoohan
       威廉·亚当斯 William Adams
       约翰·沃尔夫 John Woolf
       杰克·克莱顿 Jack Clayton
       马尔科姆·阿诺德 Malcolm Arnold
       盖伊·格林 Guy Green
       克莱夫·唐纳 Clive Donner
       威廉·凯尔纳 William Kellner

简  介

USA:98 min                                       
                                    本片根据Christopher Isherwood在1939年的短片小说Goodbye to Berlin  (often published together in a collection called The Berlin Stories).并在1951年改编成名剧本 I Am a Camera改编。后来又由此改编成了百老汇音乐剧Cabaret (1966) 和电影 Cabaret (1972)                                       
                                    In the early thirties, aspiring writer Christopher Isherwood, living in Berlin, meets the vivacious, penniless singer Sally Bowles. They develop a platonic relationsh...


影片参数
  1. Video
  2. ID                                       : 1
  3. Format                                   : AVC
  4. Format/Info                              : Advanced Video Codec
  5. Format profile                           : [email protected]
  6. Format settings                          : CABAC / 5 Ref Frames
  7. Format settings, CABAC                   : Yes
  8. Format settings, Reference frames        : 5 frames
  9. Codec ID                                 : V_MPEG4/ISO/AVC
  10. Duration                                 : 1 h 39 min
  11. Bit rate                                 : 16.2 Mb/s
  12. Width                                    : 1 478 pixels
  13. Height                                   : 1 080 pixels
  14. Display aspect ratio                     : 4:3
  15. Frame rate mode                          : Constant
  16. Frame rate                               : 24.000 FPS
  17. Color space                              : YUV
  18. Chroma subsampling                       : 4:2:0
  19. Bit depth                                : 8 bits
  20. Scan type                                : Progressive
  21. Bits/(Pixel*Frame)                       : 0.422
  22. Stream size                              : 11.2 GiB (96%)
  23. Writing library                          : x264 core 164 r3095 baee400
  24. Encoding settings                        : cabac=1 / ref=5 / deblock=1:-3:-3 / analyse=0x3:0x133 / me=umh / subme=10 / psy=1 / psy_rd=1.20:0.00 / mixed_ref=1 / me_range=24 / chroma_me=1 / trellis=2 / 8x8dct=1 / cqm=0 / deadzone=21,11 / fast_pskip=0 / chroma_qp_offset=-2 / threads=24 / lookahead_threads=4 / sliced_threads=0 / nr=0 / decimate=0 / interlaced=0 / bluray_compat=0 / constrained_intra=0 / bframes=8 / b_pyramid=2 / b_adapt=2 / b_bias=0 / direct=3 / weightb=1 / open_gop=0 / weightp=2 / keyint=250 / keyint_min=24 / scenecut=40 / intra_refresh=0 / rc_lookahead=60 / rc=crf / mbtree=1 / crf=22.0 / qcomp=0.60 / qpmin=0 / qpmax=69 / qpstep=4 / ip_ratio=1.40 / aq=3:0.90
  25. Default                                  : Yes
  26. Forced                                   : No
  27. Color range                              : Limited
  28. Matrix coefficients                      : BT.709

  29. Audio
  30. ID                                       : 2
  31. Format                                   : FLAC
  32. Format/Info                              : Free Lossless Audio Codec
  33. Codec ID                                 : A_FLAC
  34. Duration                                 : 1 h 39 min
  35. Bit rate mode                            : Variable
  36. Bit rate                                 : 639 kb/s
  37. Channel(s)                               : 2 channels
  38. Channel layout                           : L R
  39. Sampling rate                            : 48.0 kHz
  40. Frame rate                               : 11.719 FPS (4096 SPF)
  41. Bit depth                                : 24 bits
  42. Compression mode                         : Lossless
  43. Stream size                              : 454 MiB (4%)
  44. Writing library                          : libFLAC 1.3.3 (UTC 2019-08-04)
  45. Language                                 : English
  46. Default                                  : Yes
  47. Forced                                   : No

  48. Text #1
  49. ID                                       : 3
  50. Format                                   : UTF-8
  51. Codec ID                                 : S_TEXT/UTF8
  52. Codec ID/Info                            : UTF-8 Plain Text
  53. Duration                                 : 1 h 26 min
  54. Bit rate                                 : 1 b/s
  55. Count of elements                        : 29
  56. Stream size                              : 850 Bytes (0%)
  57. Title                                    : English (Forced)
  58. Language                                 : English
  59. Default                                  : Yes
  60. Forced                                   : Yes

  61. Text #2
  62. ID                                       : 4
  63. Format                                   : PGS
  64. Muxing mode                              : zlib
  65. Codec ID                                 : S_HDMV/PGS
  66. Codec ID/Info                            : Picture based subtitle format used on BDs/HD-DVDs
  67. Duration                                 : 1 h 38 min
  68. Bit rate                                 : 49.3 kb/s
  69. Count of elements                        : 3290
  70. Stream size                              : 34.8 MiB (0%)
  71. Title                                    : SDH
  72. Language                                 : English
  73. Default                                  : No
  74. Forced                                   : No

  75. Text #3
  76. ID                                       : 5
  77. Format                                   : PGS
  78. Muxing mode                              : zlib
  79. Codec ID                                 : S_HDMV/PGS
  80. Codec ID/Info                            : Picture based subtitle format used on BDs/HD-DVDs
  81. Duration                                 : 1 h 26 min
  82. Bit rate                                 : 822 b/s
  83. Count of elements                        : 58
  84. Stream size                              : 522 KiB (0%)
  85. Language                                 : English
  86. Default                                  : No
  87. Forced                                   : No

  88. Menu
  89. 00:00:00.000                             : Chapter 01
  90. 00:06:43.083                             : Chapter 02
  91. 00:15:22.083                             : Chapter 03
  92. 00:21:11.125                             : Chapter 04
  93. 00:32:15.625                             : Chapter 05
  94. 00:39:47.417                             : Chapter 06
  95. 00:48:36.083                             : Chapter 07
  96. 00:58:11.292                             : Chapter 08
  97. 01:06:11.250                             : Chapter 09
  98. 01:15:29.583                             : Chapter 10
  99. 01:24:43.333                             : Chapter 11
  100. 01:32:09.833                             : Chapter 12
复制代码

《我是一部照相机 I.Am.a.Camera.1955.1080p.BluRay.x264-ORBS 11.68GB》迅雷下载_BT种子下载_蓝光高清 - ...

《我是一部照相机 I.Am.a.Camera.1955.1080p.BluRay.x264-ORBS 11.68GB》迅雷下载_BT种子下载_蓝光高清 -  ...



蓝光高清网提示您 点击下方附件即可下载

《我是一部照相机 I.Am.a.Camera.1955.1080p.BluRay.x264-ORBS 11.68GB》迅雷下载_BT种子下载www.4kii.com - 蓝光高清网 4kii.com

I.Am.a.Camera.1955.1080p.BluRay.x264-ORBS.torrent ( 15.32 KB )

加入蓝光高清网VIP会员  无限制下载本站所有资源---点这里

资源下载、资源播放、字幕使用、无法下载等常见问题---点这里
回复

使用道具 举报

全部回复1 显示全部楼层
wangzhang3手机认证 发表于 2022-8-18 06:35:25 | 显示全部楼层
楼主辛苦了,谢谢分享
回复 支持 反对

使用道具 举报

发表回复

您需要登录后才可以回帖 登录 | 立即注册

本版积分规则

开通会员 帮助中心 返回顶部 返回列表