本站已运行

蓝光高清网

搜索
开启左侧

[动作片] 交易室 Wire.Room.2022.1080p.BluRay.REMUX.AVC.DTS-HD.MA.5.1-FGT 20.16GB

蓝鸟 发表于 2022-10-3 09:16:33 | 显示全部楼层 |阅读模式


标  题 交易室
译  名 监侦危机 / 监侦室 / 监视危机
片  名 Wire Room
年  代 2022
产  地 美国
类  别 动作 / 犯罪
语  言 英语
上映日期 2022-09-02(美国)
导  演 马特·伊斯坎达里 Matt Eskandari
演  员 布鲁斯·威利斯 Bruce Willis
       凯文·狄龙 Kevin Dillon
       奥利弗·特雷韦纳 Oliver Trevena
       J.M. Wilkerson J.M. Wilkerson

简  介

埃迪·弗林(奥利弗·特雷韦纳饰演)是一名臭名昭著的爱尔兰军火商,在一场血腥的帮派战争后逃亡,最后在美国充当巴哈卡特尔的中间人。


影片参数
  1. Video
  2. ID                                       : 1
  3. ID in the original source medium         : 4113 (0x1011)
  4. Format                                   : AVC
  5. Format/Info                              : Advanced Video Codec
  6. Format profile                           : [email protected]
  7. Format settings                          : CABAC / 4 Ref Frames
  8. Format settings, CABAC                   : Yes
  9. Format settings, Reference frames        : 4 frames
  10. Codec ID                                 : V_MPEG4/ISO/AVC
  11. Duration                                 : 1 h 36 min
  12. Bit rate mode                            : Variable
  13. Bit rate                                 : 26.5 Mb/s
  14. Maximum bit rate                         : 35.0 Mb/s
  15. Width                                    : 1 920 pixels
  16. Height                                   : 1 080 pixels
  17. Display aspect ratio                     : 16:9
  18. Frame rate mode                          : Constant
  19. Frame rate                               : 23.976 (24000/1001/189150) FPS
  20. Standard                                 : NTSC
  21. Color space                              : YUV
  22. Chroma subsampling                       : 4:2:0
  23. Bit depth                                : 8 bits
  24. Scan type                                : Progressive
  25. Bits/(Pixel*Frame)                       : 0.533
  26. Stream size                              : 17.9 GiB (89%)
  27. Language                                 : English
  28. Default                                  : No
  29. Forced                                   : No
  30. Color range                              : Limited
  31. Color primaries                          : BT.709
  32. Transfer characteristics                 : BT.709
  33. Matrix coefficients                      : BT.709
  34. Original source medium                   : Blu-ray
  35. Audio
  36. ID                                       : 2
  37. ID in the original source medium         : 4352 (0x1100)
  38. Format                                   : DTS XLL
  39. Format/Info                              : Digital Theater Systems
  40. Commercial name                          : DTS-HD Master Audio
  41. Codec ID                                 : A_DTS
  42. Duration                                 : 1 h 36 min
  43. Bit rate mode                            : Variable
  44. Bit rate                                 : 3 314 kb/s
  45. Channel(s)                               : 6 channels
  46. Channel layout                           : C L R Ls Rs LFE
  47. Sampling rate                            : 48.0 kHz
  48. Frame rate                               : 93.750 FPS (512 SPF)
  49. Bit depth                                : 24 bits
  50. Compression mode                         : Lossless
  51. Stream size                              : 2.24 GiB (11%)
  52. Title                                    : DTS-HD MA 5.1
  53. Language                                 : English
  54. Default                                  : Yes
  55. Forced                                   : No
  56. Original source medium                   : Blu-ray
  57. Text #1
  58. ID                                       : 3
  59. Format                                   : UTF-8
  60. Codec ID                                 : S_TEXT/UTF8
  61. Codec ID/Info                            : UTF-8 Plain Text
  62. Duration                                 : 1 h 30 min
  63. Bit rate                                 : 58 b/s
  64. Frame rate                               : 0.218 FPS
  65. Count of elements                        : 1181
  66. Stream size                              : 39.0 KiB (0%)
  67. Language                                 : English
  68. Default                                  : Yes
  69. Forced                                   : No
  70. Text #2
  71. ID                                       : 4
  72. Format                                   : UTF-8
  73. Codec ID                                 : S_TEXT/UTF8
  74. Codec ID/Info                            : UTF-8 Plain Text
  75. Duration                                 : 1 h 31 min
  76. Bit rate                                 : 62 b/s
  77. Frame rate                               : 0.240 FPS
  78. Count of elements                        : 1323
  79. Stream size                              : 42.1 KiB (0%)
  80. Title                                    : SDH
  81. Language                                 : English
  82. Default                                  : No
  83. Forced                                   : No
  84. Text #3
  85. ID                                       : 5
  86. ID in the original source medium         : 4608 (0x1200)
  87. Format                                   : PGS
  88. Muxing mode                              : zlib
  89. Codec ID                                 : S_HDMV/PGS
  90. Codec ID/Info                            : Picture based subtitle format used on BDs/HD-DVDs
  91. Duration                                 : 1 h 31 min
  92. Bit rate                                 : 38.9 kb/s
  93. Frame rate                               : 0.484 FPS
  94. Count of elements                        : 2670
  95. Stream size                              : 25.6 MiB (0%)
  96. Language                                 : English
  97. Default                                  : No
  98. Forced                                   : No
  99. Original source medium                   : Blu-ray
  100. Text #4
  101. ID                                       : 6
  102. ID in the original source medium         : 4609 (0x1201)
  103. Format                                   : PGS
  104. Muxing mode                              : zlib
  105. Codec ID                                 : S_HDMV/PGS
  106. Codec ID/Info                            : Picture based subtitle format used on BDs/HD-DVDs
  107. Duration                                 : 1 h 34 min
  108. Bit rate                                 : 33.3 kb/s
  109. Frame rate                               : 0.416 FPS
  110. Count of elements                        : 2346
  111. Stream size                              : 22.4 MiB (0%)
  112. Language                                 : Spanish
  113. Default                                  : No
  114. Forced                                   : No
  115. Original source medium                   : Blu-ray
  116. Text #5
  117. ID                                       : 7
  118. ID in the original source medium         : 4610 (0x1202)
  119. Format                                   : PGS
  120. Muxing mode                              : zlib
  121. Codec ID                                 : S_HDMV/PGS
  122. Codec ID/Info                            : Picture based subtitle format used on BDs/HD-DVDs
  123. Duration                                 : 1 h 30 min
  124. Bit rate                                 : 32.3 kb/s
  125. Frame rate                               : 0.399 FPS
  126. Count of elements                        : 2166
  127. Stream size                              : 20.9 MiB (0%)
  128. Language                                 : French
  129. Default                                  : No
  130. Forced                                   : No
  131. Original source medium                   : Blu-ray
  132. Text #6
  133. ID                                       : 8
  134. ID in the original source medium         : 4611 (0x1203)
  135. Format                                   : PGS
  136. Muxing mode                              : zlib
  137. Codec ID                                 : S_HDMV/PGS
  138. Codec ID/Info                            : Picture based subtitle format used on BDs/HD-DVDs
  139. Duration                                 : 1 h 31 min
  140. Bit rate                                 : 33.2 kb/s
  141. Frame rate                               : 0.479 FPS
  142. Count of elements                        : 2640
  143. Stream size                              : 21.8 MiB (0%)
  144. Language                                 : Portuguese
  145. Default                                  : No
  146. Forced                                   : No
  147. Original source medium                   : Blu-ray
  148. Menu
  149. 00:00:00.000                             : en:Chapter 01
  150. 00:11:16.676                             : en:Chapter 02
  151. 00:20:13.212                             : en:Chapter 03
  152. 00:26:52.611                             : en:Chapter 04
  153. 00:35:08.898                             : en:Chapter 05
  154. 00:43:00.578                             : en:Chapter 06
  155. 00:52:10.127                             : en:Chapter 07
  156. 00:57:15.432                             : en:Chapter 08
  157. 01:06:26.607                             : en:Chapter 09
  158. 01:13:15.391                             : en:Chapter 10
  159. 01:22:24.981                             : en:Chapter 11
  160. 01:32:43.558                             : en:Chapter 12
  161. 01:36:35.790                             : en:Chapter 13
复制代码



蓝光高清网提示您 点击下方附件即可下载

交易室 Wire.Room.2022.1080p.BluRay.REMUX.AVC.DTS-HD.MA.5.1-FGT 20.16GB

Wire.Room.2022.1080p.BluRay.REMUX.AVC.DTS-HD.MA.5.1-FGT.torrent ( 25.82 KB )

加入蓝光高清网VIP会员  无限制下载本站所有资源---点这里

资源下载、资源播放、字幕使用、无法下载等常见问题---点这里
回复

使用道具 举报

全部回复0 显示全部楼层

发表回复

您需要登录后才可以回帖 登录 | 立即注册

本版积分规则

开通会员 帮助中心 返回顶部 返回列表