本站已运行

蓝光高清网

搜索
开启左侧

[剧情] 勇者无惧 They.Who.Dare.1954.1080p.BluRay.x264-GAZER 14.63GB

蓝鸟 发表于 2022-10-3 09:28:39 | 显示全部楼层 |阅读模式


标  题 勇者无惧
译  名 Lewis Milestone''s They Who Dare
片  名 They Who Dare
年  代 1954
产  地 英国
类  别 剧情 / 战争
语  言 英语
上映日期 1954-05
IMDb评分 5.5/10 (683人评价)
片  长 107 分钟
导  演 刘易斯·迈尔斯通 Lewis Milestone
编  剧 罗伯特·威斯特比 Robert Westerby
演  员 凯·卡拉尔 Kay Callard
       威廉·拉塞尔 William Russell
       德克·博加德 Dirk Bogarde
       David Peel David Peel
       埃里克·普罗曼 Eric Pohlmann
       哈罗德·西登斯 Harold Siddons
       罗伯特·里耶蒂 Robert Rietty
       阿基姆·坦米罗夫 Akim Tamiroff
       Eileen Way Eileen Way
       亚历克·曼戈 Alec Mango
       迈克尔·梅林杰 Michael Mellinger
       山姆·基德 Sam Kydd
       丽莎·佳丝托妮 Lisa Gastoni
       Peter Burton Peter Burton
       热拉尔·乌里 Gérard Oury
       丹霍姆·艾略特 Denholm Elliott
       Aubrey Baring Aubrey Baring
       Maxwell Setton Maxwell Setton
       Robert Gill Robert Gill
       Wilkie Cooper Wilkie Cooper
       Vladimir Sagovsky Vladimir Sagovsky
       唐纳德·M·阿什顿 Donald M. Ashton
       Gus Agosti Gus Agosti

简  介

二战期间在希腊,英国突击队员奉命在夜晚攻击同盟国埃及军队,在该地区时刻威胁盟军的战略飞机场。在偷袭最后时刻发生意外,但是队员们没有退缩,而是机警的摆脱敌人将飞机场炸毁。随后驻军派出部队在山上进行大规模搜捕,在逃亡中当地的老百姓也暗中帮助突击队员,最后突击队员只有两名生还。


影片参数
  1. Video
  2. ID                                       : 1
  3. Format                                   : AVC
  4. Format/Info                              : Advanced Video Codec
  5. Format profile                           : [email protected]
  6. Format settings                          : CABAC / 5 Ref Frames
  7. Format settings, CABAC                   : Yes
  8. Format settings, Reference frames        : 5 frames
  9. Codec ID                                 : V_MPEG4/ISO/AVC
  10. Duration                                 : 1 h 47 min
  11. Bit rate                                 : 18.7 Mb/s
  12. Width                                    : 1 480 pixels
  13. Height                                   : 1 080 pixels
  14. Display aspect ratio                     : 1.370
  15. Frame rate mode                          : Constant
  16. Frame rate                               : 24.000 FPS
  17. Color space                              : YUV
  18. Chroma subsampling                       : 4:2:0
  19. Bit depth                                : 8 bits
  20. Scan type                                : Progressive
  21. Bits/(Pixel*Frame)                       : 0.489
  22. Stream size                              : 14.1 GiB (97%)
  23. Writing library                          : x264 core 164 r3095 baee400
  24. Encoding settings                        : cabac=1 / ref=5 / deblock=1:-3:-3 / analyse=0x3:0x133 / me=umh / subme=10 / psy=1 / psy_rd=1.20:0.00 / mixed_ref=1 / me_range=24 / chroma_me=1 / trellis=2 / 8x8dct=1 / cqm=0 / deadzone=21,11 / fast_pskip=0 / chroma_qp_offset=-2 / threads=24 / lookahead_threads=4 / sliced_threads=0 / nr=0 / decimate=0 / interlaced=0 / bluray_compat=0 / constrained_intra=0 / bframes=8 / b_pyramid=2 / b_adapt=2 / b_bias=0 / direct=3 / weightb=1 / open_gop=0 / weightp=2 / keyint=250 / keyint_min=24 / scenecut=40 / intra_refresh=0 / rc_lookahead=60 / rc=crf / mbtree=1 / crf=20.0 / qcomp=0.60 / qpmin=0 / qpmax=69 / qpstep=4 / ip_ratio=1.40 / aq=3:0.90
  25. Default                                  : Yes
  26. Forced                                   : No
  27. Color range                              : Limited
  28. Matrix coefficients                      : BT.709

  29. Audio
  30. ID                                       : 2
  31. Format                                   : FLAC
  32. Format/Info                              : Free Lossless Audio Codec
  33. Codec ID                                 : A_FLAC
  34. Duration                                 : 1 h 47 min
  35. Bit rate mode                            : Variable
  36. Bit rate                                 : 647 kb/s
  37. Channel(s)                               : 2 channels
  38. Channel layout                           : L R
  39. Sampling rate                            : 48.0 kHz
  40. Frame rate                               : 11.719 FPS (4096 SPF)
  41. Bit depth                                : 24 bits
  42. Compression mode                         : Lossless
  43. Stream size                              : 500 MiB (3%)
  44. Writing library                          : libFLAC 1.3.3 (UTC 2019-08-04)
  45. Language                                 : English
  46. Default                                  : Yes
  47. Forced                                   : No

  48. Text #1
  49. ID                                       : 3
  50. Format                                   : UTF-8
  51. Codec ID                                 : S_TEXT/UTF8
  52. Codec ID/Info                            : UTF-8 Plain Text
  53. Duration                                 : 1 h 9 min
  54. Bit rate                                 : 2 b/s
  55. Count of elements                        : 47
  56. Stream size                              : 1.26 KiB (0%)
  57. Title                                    : English (Forced)
  58. Language                                 : English
  59. Default                                  : Yes
  60. Forced                                   : Yes

  61. Text #2
  62. ID                                       : 4
  63. Format                                   : PGS
  64. Muxing mode                              : zlib
  65. Codec ID                                 : S_HDMV/PGS
  66. Codec ID/Info                            : Picture based subtitle format used on BDs/HD-DVDs
  67. Duration                                 : 1 h 46 min
  68. Bit rate                                 : 30.5 kb/s
  69. Count of elements                        : 2398
  70. Stream size                              : 23.3 MiB (0%)
  71. Title                                    : SDH
  72. Language                                 : English
  73. Default                                  : No
  74. Forced                                   : No

  75. Text #3
  76. ID                                       : 5
  77. Format                                   : PGS
  78. Muxing mode                              : zlib
  79. Codec ID                                 : S_HDMV/PGS
  80. Codec ID/Info                            : Picture based subtitle format used on BDs/HD-DVDs
  81. Duration                                 : 1 h 9 min
  82. Bit rate                                 : 1 593 b/s
  83. Count of elements                        : 94
  84. Stream size                              : 816 KiB (0%)
  85. Language                                 : English
  86. Default                                  : No
  87. Forced                                   : No

  88. Menu
  89. 00:00:00.000                             : Chapter 01
  90. 00:07:16.500                             : Chapter 02
  91. 00:15:32.125                             : Chapter 03
  92. 00:24:35.000                             : Chapter 04
  93. 00:34:48.958                             : Chapter 05
  94. 00:43:48.375                             : Chapter 06
  95. 00:56:49.792                             : Chapter 07
  96. 01:06:55.083                             : Chapter 08
  97. 01:17:59.250                             : Chapter 09
  98. 01:26:22.542                             : Chapter 10
  99. 01:35:28.292                             : Chapter 11
  100. 01:42:45.625                             : Chapter 12
复制代码



蓝光高清网提示您 点击下方附件即可下载

勇者无惧 They.Who.Dare.1954.1080p.BluRay.x264-GAZER 14.63GB

They.Who.Dare.1954.1080p.BluRay.x264-GAZER.torrent ( 19.02 KB )

加入蓝光高清网VIP会员  无限制下载本站所有资源---点这里

资源下载、资源播放、字幕使用、无法下载等常见问题---点这里
回复

使用道具 举报

全部回复0 显示全部楼层

发表回复

您需要登录后才可以回帖 登录 | 立即注册

本版积分规则

开通会员 帮助中心 返回顶部 返回列表