本站已运行

蓝光高清网

搜索
开启左侧

[剧情] 布克与传教士 Buck.and.the.Preacher.1972.1080p.BluRay.x264-MiMiC 15.79GB

蓝鸟 发表于 2022-10-3 09:30:11 | 显示全部楼层 |阅读模式


标  题 布克与传教士
译  名 布克与牧师
片  名 Buck and the Preacher
年  代 1972
产  地 美国
类  别 剧情 / 喜剧 / 西部 / 冒险
语  言 英语
上映日期 1972-04-28(美国)
IMDb评分 6.5/10 (2102人评价)
片  长 102 分钟
导  演 西德尼·波蒂埃 Sidney Poitier
编  剧 欧内斯特·基诺伊 Ernest Kinoy
演  员 西德尼·波蒂埃 Sidney Poitier
       哈里·贝拉方特 Harry Belafonte
       露比·迪 Ruby Dee
       西德尼·波蒂埃 Sidney Poitier
       佩姆布罗克·J·赫林 Pembroke J. Herring
       Sydney Z. Litwack Sydney Z. Litwack

简  介

南北战争结束后,美国权势阶层重新洗牌。但是,社会并未发生太大的改变,黑人依旧处于弱势地位。电影运用喜剧化的表达,展现出了对现实的讽刺。西部拓荒的道路上,是白人的子弹、黑人的血泪,还有印第安人那冷冰冰的尸体。


影片参数
  1. Video
  2. ID                                       : 1
  3. Format                                   : AVC
  4. Format/Info                              : Advanced Video Codec
  5. Format profile                           : [email protected]
  6. Format settings                          : CABAC / 4 Ref Frames
  7. Format settings, CABAC                   : Yes
  8. Format settings, Reference frames        : 4 frames
  9. Codec ID                                 : V_MPEG4/ISO/AVC
  10. Duration                                 : 1 h 43 min
  11. Bit rate                                 : 21.3 Mb/s
  12. Width                                    : 1 920 pixels
  13. Height                                   : 1 040 pixels
  14. Display aspect ratio                     : 1.85:1
  15. Frame rate mode                          : Constant
  16. Frame rate                               : 23.976 (24000/1001/189150) FPS
  17. Color space                              : YUV
  18. Chroma subsampling                       : 4:2:0
  19. Bit depth                                : 8 bits
  20. Scan type                                : Progressive
  21. Bits/(Pixel*Frame)                       : 0.445
  22. Stream size                              : 15.4 GiB (97%)
  23. Writing library                          : x264 core 164 r3100 ed0f7a6
  24. Encoding settings                        : cabac=1 / ref=4 / deblock=1:0:0 / analyse=0x3:0x133 / me=umh / subme=9 / psy=1 / psy_rd=1.00:0.00 / mixed_ref=1 / me_range=16 / chroma_me=1 / trellis=2 / 8x8dct=1 / cqm=0 / deadzone=21,11 / fast_pskip=0 / chroma_qp_offset=-2 / threads=32 / lookahead_threads=2 / sliced_threads=0 / nr=0 / decimate=0 / interlaced=0 / bluray_compat=0 / constrained_intra=0 / bframes=3 / b_pyramid=2 / b_adapt=2 / b_bias=0 / direct=3 / weightb=1 / open_gop=0 / weightp=2 / keyint=240 / keyint_min=23 / scenecut=40 / intra_refresh=0 / rc=crf / mbtree=0 / crf=19.3 / qcomp=0.60 / qpmin=0 / qpmax=69 / qpstep=4 / ip_ratio=1.40 / pb_ratio=1.30 / aq=1:1.00
  25. Default                                  : Yes
  26. Forced                                   : No
  27. Color range                              : Limited
  28. Matrix coefficients                      : BT.709

  29. Audio
  30. ID                                       : 2
  31. Format                                   : FLAC
  32. Format/Info                              : Free Lossless Audio Codec
  33. Codec ID                                 : A_FLAC
  34. Duration                                 : 1 h 43 min
  35. Bit rate mode                            : Variable
  36. Bit rate                                 : 588 kb/s
  37. Channel(s)                               : 1 channel
  38. Channel layout                           : C
  39. Sampling rate                            : 48.0 kHz
  40. Frame rate                               : 11.719 FPS (4096 SPF)
  41. Bit depth                                : 24 bits
  42. Compression mode                         : Lossless
  43. Stream size                              : 434 MiB (3%)
  44. Writing library                          : libFLAC 1.2.1 (UTC 2007-09-17)
  45. Language                                 : English
  46. Default                                  : Yes
  47. Forced                                   : No

  48. Text
  49. ID                                       : 3
  50. Format                                   : PGS
  51. Muxing mode                              : zlib
  52. Codec ID                                 : S_HDMV/PGS
  53. Codec ID/Info                            : Picture based subtitle format used on BDs/HD-DVDs
  54. Duration                                 : 1 h 37 min
  55. Bit rate                                 : 31.3 kb/s
  56. Count of elements                        : 1508
  57. Stream size                              : 21.8 MiB (0%)
  58. Language                                 : English
  59. Default                                  : No
  60. Forced                                   : No

  61. Menu
  62. 00:00:00.000                             : en:Chapter 01
  63. 00:05:34.834                             : en:Chapter 02
  64. 00:09:25.482                             : en:Chapter 03
  65. 00:15:45.611                             : en:Chapter 04
  66. 00:28:49.394                             : en:Chapter 05
  67. 00:34:49.671                             : en:Chapter 06
  68. 00:42:48.983                             : en:Chapter 07
  69. 00:49:50.529                             : en:Chapter 08
  70. 00:59:00.620                             : en:Chapter 09
  71. 01:05:46.025                             : en:Chapter 10
  72. 01:09:44.764                             : en:Chapter 11
  73. 01:21:53.867                             : en:Chapter 12
  74. 01:32:28.418                             : en:Chapter 13
复制代码



蓝光高清网提示您 点击下方附件即可下载

布克与传教士 Buck.and.the.Preacher.1972.1080p.BluRay.x264-MiMiC 15.79GB

Buck.and.the.Preacher.1972.1080p.BluRay.x264-MiMiC.torrent ( 20.49 KB )

加入蓝光高清网VIP会员  无限制下载本站所有资源---点这里

资源下载、资源播放、字幕使用、无法下载等常见问题---点这里
回复

使用道具 举报

全部回复0 显示全部楼层

发表回复

您需要登录后才可以回帖 登录 | 立即注册

本版积分规则

开通会员 帮助中心 返回顶部 返回列表