本站已运行

蓝光高清网

搜索
开启左侧

多力特的奇幻冒险 Dolittle.2020.1080p.3D.BluRay.x264.TrueHD.7.1.Atmos-3D原盘电影下载

蓝鸟 发表于 2022-10-26 11:15:21 | 显示全部楼层 |阅读模式
多力特的奇幻冒险 豆瓣评分: 5.7分
片长: 101分钟 ( 2020年上映)
类型:喜剧 奇幻 冒险 
导演:斯蒂芬·加汉
主演:小罗伯特·唐尼 / 汤姆·赫兰德 / 拉米·马雷克 / 麦克·辛 / 杰西·巴克利
3 D 格式:half-ou sbs 

封装音轨:DTS-HD.MA 7.1 Dolby TrueHD 7.1 Dolby Atmos 
本帖最后由 蓝鸟 于 2022-10-26 11:24 编辑
. `- `, H+ t) ]+ l- G9 {% H( W
7 Q! M4 y! F8 ^' R0 u8 D; m! B简       介$ T1 F7 ~' x- n/ Q) V/ x* f4 w
# w* S6 B# S* s( ]3 a
  故事发生在英国维多利亚女王(杰西·巴克利 Jessie Buckley 饰)统治时期,多力特(小罗伯特·唐尼 Robert Downey Jr. 饰)拥有着能够和动物交谈的特殊能力,和妻子一起在老家经营着一家动物医院。0 Y* q; B* F4 h4 ?
  一场意外夺走了多力特妻子的生命,这巨大的打击让多力特封闭起了心门,拒绝和任何人类接触。一天,一个名叫汤姆(哈里·科莱特 Harry Collett 饰)的男孩闯入了多力特的家,带来了一只受伤的松鼠,希望多力特能够救它。与此同时,维多利亚女王患上了一种怪病,于是派出了侍女萝丝(卡梅尔·拉尼亚多 Carmel Laniado 饰)去拜访多力特,请他出山。多力特所拥有的动物庄园归属于女王的名下,如果女王去世了,那么多力特将失去他和动物们这唯一的乐园。

9 ]' H4 [# {6 U9 x4 {8 o& H/ v& N7 \+ I
获奖情况 (共7项)
, @# N& L! \  u  a  F' _  第41届金酸莓奖 (2021)
* p0 n- t) x& ^$ d5 d  最差影片(提名)
* a+ G/ r% {) }1 N3 j  最差男主角(提名)3 {2 `' B8 D& e9 i6 F: }% |
   └──小罗伯特·唐尼 (id:1016681)
3 f1 g2 ~7 ~, ^" G. ~/ [  最差导演(提名)
# _8 R( o; V; r   └──斯蒂芬·加汉 (id:1045122)# o, }7 k# N! S) e; X$ @) p' X8 @
  最差剧本(提名)
: n1 w* l* P, e6 i2 s( N" E2 \  最差银幕组合(提名)+ p+ K3 _% p  V! |
   └──小罗伯特·唐尼 (id:1016681)
  ?) s( w4 J, e  最差前传、重拍、恶搞及续集电影# `' Z" m0 O0 W0 ^) |2 ~* A" l' q6 _8 J
  第23届美国服装设计工会奖 (2021)
6 W7 H" g1 m: V" Q: e  科幻/奇幻题材电影最佳服装设计(提名)2 d* q+ o' q0 ?# v4 x8 T% ]. q% W
   └──珍妮·碧万 (id:1278169)
3 d  ~! A  s4 O4 K0 M) d6 P/ Z* H
7 x- l$ o: H& H& d" Q影片参数
Video
/ e8 Q7 w6 w) L$ fID                                       : 1+ w. ^4 J4 {; O+ M& R( _
Format                                   : AVC- O- Y; i7 V2 n9 i+ E
Format/Info                              : Advanced Video Codec
$ X& t% O9 y- A* I& r( f# M/ G+ gFormat profile                           : [email protected]
/ f9 J: a% ~0 d% Y) rFormat settings                          : CABAC / 2 Ref Frames/ Q1 v" a  J  ^
Format settings, CABAC                   : Yes- o7 ]( O' n1 ?* L' b" N; `9 x/ W0 ~
Format settings, Reference frames        : 2 frames
* O/ y& n% B5 v) BCodec ID                                 : V_MPEG4/ISO/AVC
2 C' g, C6 A+ @. o9 EDuration                                 : 1 h 41 min8 C% ~. G/ x% V- K
Bit rate                                 : 14.3 Mb/s2 o' n* z2 P; [2 U2 f) A; A
Nominal bit rate                         : 15.5 Mb/s
& m9 Y, H- f( {Width                                    : 1 920 pixels
6 r7 z" y; {9 G' H9 OHeight                                   : 1 080 pixels
) n7 l) x$ h! R$ R/ M$ MDisplay aspect ratio                     : 16:9* W  L! Z7 s2 c
Frame rate mode                          : Constant
8 h, o( W  k, M. ]Frame rate                               : 23.976 (24000/1001/189150) FPS
( a# n* L7 s4 I) C6 UColor space                              : YUV: S0 `+ n, n% @6 r' h
Chroma subsampling                       : 4:2:0
* R* P# ~6 f. u0 i( R4 _Bit depth                                : 8 bits  i* Y: D4 t" E* {( A& L
Scan type                                : Progressive# E- t! [1 _! a. T" Y% ^. V
Bits/(Pixel*Frame)                       : 0.288( O& K* c+ i" o6 x$ }
Stream size                              : 10.1 GiB (52%)
$ _* p8 [9 d5 l  E2 X( H  RWriting library                          : x264 core 1487 Q- D/ }. J8 t0 u( t% l5 t9 k
Encoding settings                        : cabac=1 / ref=1 / deblock=1:-1:-1 / analyse=0x3:0 / me=hex / subme=5 / psy=0 / mixed_ref=0 / me_range=16 / chroma_me=1 / trellis=0 / 8x8dct=1 / cqm=0 / deadzone=21,11 / fast_pskip=0 / chroma_qp_offset=0 / threads=48 / lookahead_threads=8 / sliced_threads=0 / nr=0 / decimate=1 / interlaced=0 / bluray_compat=0 / constrained_intra=0 / bframes=2 / b_pyramid=0 / b_adapt=1 / b_bias=0 / direct=1 / weightb=0 / open_gop=0 / weightp=0 / keyint=24 / keyint_min=13 / scenecut=40 / intra_refresh=0 / rc_lookahead=24 / rc=cbr / mbtree=0 / bitrate=15500 / ratetol=1.0 / qcomp=0.60 / qpmin=0 / qpmax=69 / qpstep=4 / vbv_maxrate=15500 / vbv_bufsize=15500 / nal_hrd=none / filler=0 / ip_ratio=1.40 / pb_ratio=1.30 / aq=1:1.00& w- J7 a- u) d
Default                                  : Yes5 L; Z' u; t: [( q4 c
Forced                                   : No! `+ W# C, C7 h' ?
Color range                              : Limited
) O- |2 }% K' s" @( a% W, `Color primaries                          : BT.709# C9 P. y$ L) k6 d" ?
Transfer characteristics                 : BT.709
5 c/ U; x% ^9 N1 E6 PMatrix coefficients                      : BT.709
% N+ F2 X5 g! x7 T) L: y% JAudio #1; N, w# {0 Q, G1 b/ N& \3 A) `
ID                                       : 2
3 H- l: Q5 k9 [! A7 Q9 G: QID in the original source medium         : 4352 (0x1100)4 S- j  D: n) _8 o( M7 B  _- Q' ^
Format                                   : MLP FBA 16-ch$ C7 S% y' l) ^- J; U" M1 Y& O9 K
Format/Info                              : Meridian Lossless Packing FBA with 16-channel presentation, ~$ |1 b, m8 `$ ~( h, Q
Commercial name                          : Dolby TrueHD with Dolby Atmos
7 |# {2 r# O7 ^. c7 UCodec ID                                 : A_TRUEHD
5 [* G& Y; r* f1 G/ Q6 [. t" \Duration                                 : 1 h 41 min
4 J8 j2 L3 R3 s. w! }1 [4 @7 |0 eBit rate mode                            : Variable2 Y; J8 @2 W4 K* R8 ^( x( Z! S
Bit rate                                 : 2 916 kb/s8 n% [; w, U, a
Maximum bit rate                         : 4 629 kb/s
  |4 k- N. V! d2 H" \: zChannel(s)                               : 8 channels- O* X# }$ K7 @8 U9 w8 `/ }6 |
Channel layout                           : L R C LFE Ls Rs Lb Rb
3 m. K: a0 I1 v, U# QSampling rate                            : 48.0 kHz
5 s  x: N6 c" M8 W" i5 k! eFrame rate                               : 1 200.000 FPS (40 SPF)
+ Z  V1 Z' P8 T+ \9 N- P0 bBit depth                                : 24 bits* w% S* M: T+ M" i/ L7 j
Compression mode                         : Lossless
* A" F0 |4 S+ r% ^& hStream size                              : 2.07 GiB (11%)
  a% H- ^% z0 iTitle                                    : TrueHD 7.1 Atmos% w, f7 i; t& c% t
Language                                 : English. N7 {7 i' w- b. c  ^) Y
Default                                  : Yes
7 A" i6 o' h( r& Z. @" y, xForced                                   : No9 \2 I0 }' Z6 I. t2 h" k
Original source medium                   : Blu-ray
6 G) p/ J: Q; ]; C6 P- YNumber of dynamic objects                : 11" r6 ?, Y1 A3 R( p
Bed channel count                        : 1 channel; K0 _+ }. R& O) g; A
Bed channel configuration                : LFE$ U) D% q4 Y3 Z; E, V  n
Audio #2
: y; k! J- n( CID                                       : 3  G; p+ z  r! i" T- y4 u0 D( v1 o
ID in the original source medium         : 4352 (0x1100)% Z8 T! a  N9 t; F$ ]4 ^
Format                                   : AC-30 o, Q3 w" f# |! U- ^  i  c
Format/Info                              : Audio Coding 3. Y2 l- g1 C- T) y* J! M
Commercial name                          : Dolby Digital
$ U$ L: l+ g; l5 r. J4 x, W) ]Codec ID                                 : A_AC3; |; K# {* C) g8 {2 N* q# L
Duration                                 : 1 h 41 min
# @- h0 l7 v2 F, A0 ~+ JBit rate mode                            : Constant
1 q9 O/ v% k, S3 @  R+ cBit rate                                 : 448 kb/s
; J  p* F% Y4 p1 n! N2 ~# {- I6 ]Channel(s)                               : 6 channels
1 D& H3 @1 k* \: T' v/ U0 t& h& R3 oChannel layout                           : L R C LFE Ls Rs
8 F8 _1 m) {8 U  W) ?Sampling rate                            : 48.0 kHz) n9 |5 z8 \+ ~+ ]' e4 C
Frame rate                               : 31.250 FPS (1536 SPF)
) k1 ]6 J+ p8 W' N, iCompression mode                         : Lossy
! d3 S( V8 J4 U) K- O0 _Stream size                              : 325 MiB (2%); P' X' O$ n% X6 L& j
Title                                    : DD 5.1: v# N6 n8 ^5 k
Language                                 : English
3 R6 H; F3 l0 g+ j; `# O9 oService kind                             : Complete Main
+ F# ~5 N3 X( D  u8 \$ ODefault                                  : No
' I, t6 C. x0 `! s+ RForced                                   : No
- ]1 z( u( y' n  b7 COriginal source medium                   : Blu-ray" e+ V% w4 n, Y  j' F
Audio #3
$ y7 i' s# g( v* t5 p: DID                                       : 4
( C; q: s8 I# j' L6 v2 J. U) @5 aID in the original source medium         : 4354 (0x1102)
; @) s7 r' Y( w$ mFormat                                   : DTS XLL; D: Q5 |2 d' z
Format/Info                              : Digital Theater Systems
+ ]3 z  K7 V3 V) F9 ?$ VCommercial name                          : DTS-HD Master Audio
* @( {1 |8 Y4 b8 w& {$ ~  rCodec ID                                 : A_DTS
2 [5 x1 W) t+ f  D. c& kDuration                                 : 1 h 41 min* D* ]4 O0 a8 @" V3 @  ]
Bit rate mode                            : Variable9 ~' m( U" T' L* H" d( ]/ _
Bit rate                                 : 1 577 kb/s5 k$ e% {# H3 s1 E
Channel(s)                               : 2 channels: l) E* {3 R' I3 Y
Sampling rate                            : 48.0 kHz+ n% j) v2 n% @7 @
Frame rate                               : 93.750 FPS (512 SPF)
1 _9 ]# Y5 w0 b: t% oBit depth                                : 16 bits9 L) b5 n2 L( }* Y# e; ^/ F9 r
Compression mode                         : Lossless
/ ~" t* r7 p" S! H  C8 SStream size                              : 1.12 GiB (6%)% G% n0 [$ S7 z  p
Title                                    : DTS-HD MA 2.0
0 C- w" `0 Z7 X$ ^4 D+ u5 J8 YLanguage                                 : English
# b1 l$ t* E7 g! CDefault                                  : No
; o7 {8 o( ^3 hForced                                   : No( E" |- Y# ]2 X7 P" m& A$ ]
Original source medium                   : Blu-ray! P1 Q4 t. t  J
Audio #4
9 h& a4 U. {) Z, u5 b: S" ^+ m4 e2 IID                                       : 5' ?- \# m- h" ?- d& P2 ?
ID in the original source medium         : 4355 (0x1103)7 I! l+ [5 L$ X5 s9 X, l3 D2 V
Format                                   : DTS XLL
6 b; i' N" D$ P& pFormat/Info                              : Digital Theater Systems
1 [, Y! a" [2 }Commercial name                          : DTS-HD Master Audio
) c  C6 x8 g& A, {& L) V0 I  sCodec ID                                 : A_DTS
" @- ]; e1 Y8 p3 HDuration                                 : 1 h 41 min
( v' _# k" r0 `. hBit rate mode                            : Variable$ |7 \# N* L4 E; a+ f4 J# J& J' Q
Bit rate                                 : 1 580 kb/s
: ?. P( E% G& b0 X; ?0 P1 _Channel(s)                               : 2 channels
5 C# }7 _) H3 g/ v2 p4 GSampling rate                            : 48.0 kHz
; s1 j; f$ Q' h2 a3 k5 D; q& x! VFrame rate                               : 93.750 FPS (512 SPF)
+ G, ?7 o* w: b/ n, @) SBit depth                                : 16 bits
! ^( k5 U. O( i- D& mCompression mode                         : Lossless
7 A2 @2 J0 ~+ p$ y  FStream size                              : 1.12 GiB (6%)
& g" @4 G- j9 W, |6 MTitle                                    : DTS-HD MA 2.08 [6 i1 c+ p5 X& s8 \
Language                                 : English9 e+ p$ s" O% @' u6 t7 E: n
Default                                  : No4 X0 s/ b( u; M& n
Forced                                   : No
$ S; R& `3 @) N! hOriginal source medium                   : Blu-ray
5 Y0 h3 m7 e4 D; BAudio #5
* o4 C' \( p+ ?1 T, }/ Q5 E& gID                                       : 69 x" k6 c% y# u* v7 z: n
ID in the original source medium         : 4356 (0x1104)
9 f' `1 w+ d1 O8 X& }Format                                   : MLP FBA 16-ch$ j: [* h7 _. Z: w3 y. m( |$ h
Format/Info                              : Meridian Lossless Packing FBA with 16-channel presentation' ^# L; y) V$ \
Commercial name                          : Dolby TrueHD with Dolby Atmos
& `9 h7 O, Z- xCodec ID                                 : A_TRUEHD8 v8 t) ^' g9 E& c3 J- k
Duration                                 : 1 h 41 min
0 v+ l' B/ Q/ N& }  a/ v* `Bit rate mode                            : Variable0 g; ^: D) _8 p  l. Q+ b0 E* D' Q" H8 V
Bit rate                                 : 2 985 kb/s" `8 y3 `, n+ L
Maximum bit rate                         : 4 395 kb/s
0 {# z4 f& y9 n+ X' ~( Y: }6 JChannel(s)                               : 8 channels
+ L- _4 s8 n1 W* K  \# X% `Channel layout                           : L R C LFE Ls Rs Lb Rb& Q7 W7 Y0 i) E: x" M% i$ F, N
Sampling rate                            : 48.0 kHz
; v1 l. U$ M7 Z1 w6 O, lFrame rate                               : 1 200.000 FPS (40 SPF)
/ q: }& i* n$ b! v$ gBit depth                                : 24 bits8 O% g* G4 m% g
Compression mode                         : Lossless# D0 }# \$ t+ \, {4 m. m
Stream size                              : 2.11 GiB (11%)- X$ R1 ]- D) I6 ^/ x
Title                                    : TrueHD 7.1 Atmos
9 H) l& g0 g- U6 H6 T) {$ VLanguage                                 : German
3 X) E5 Z6 K1 wDefault                                  : No8 @5 P  P2 C  d  o3 i
Forced                                   : No5 g& p* S; L+ y  C+ ^: x. \
Original source medium                   : Blu-ray
" P9 C7 l5 R- y2 d/ UNumber of dynamic objects                : 11
2 U3 B+ F, q$ `3 Y* T  p6 IBed channel count                        : 1 channel4 D- Q4 z5 L4 L; j
Bed channel configuration                : LFE
8 T( K5 Z( {2 Z9 K/ @8 NAudio #6
# F$ ?% `- s9 E, `. JID                                       : 7
+ \, E( u0 o! d$ e2 @9 VFormat                                   : E-AC-3  }6 Q+ f" y) o" ^3 z
Format/Info                              : Enhanced AC-3  V" b8 p* {$ t6 E3 y
Commercial name                          : Dolby Digital Plus/ J& D4 X+ N6 X1 a8 k
Format profile                           : Blu-ray Disc3 U3 }6 t/ Q% z
Codec ID                                 : A_EAC3$ T/ q2 y, |8 q: y
Duration                                 : 1 h 41 min$ u# f, S: y7 B, {! j  ~0 ]+ e' G
Bit rate mode                            : Constant
! J4 V, O* v1 t8 @( MBit rate                                 : 768 kb/s/ G7 d, s4 R' e1 \8 l3 ^) o! y
Channel(s)                               : 8 channels
2 i! @- |- [( B* HChannel layout                           : L R C LFE Ls Rs Lb Rb
- {! o9 r( w; t1 A- n6 tSampling rate                            : 48.0 kHz, E# ]" l" A6 ^/ P& o5 ~
Frame rate                               : 31.250 FPS (1536 SPF)
1 j1 i. H+ W* ~5 i; Z) oCompression mode                         : Lossy
1 M( p# j; [/ @Stream size                              : 557 MiB (3%)
, [% i# l7 [! w5 qTitle                                    : DDP 7.1! e3 K. B" Q9 h4 A9 i$ J
Language                                 : Italian
% p2 c; I3 N0 E4 W! rService kind                             : Complete Main! r3 k* S/ E! |# N( K
Default                                  : No
1 e  Y7 k3 l) k- I6 u5 KForced                                   : No8 M0 ~" J* b: J( y# R; [2 D4 [- K
Audio #7* V4 r- C/ E, o4 W6 g5 `; X, `
ID                                       : 86 B; j% K' F  T- R, W$ q, U
ID in the original source medium         : 4358 (0x1106)! N( P* `' K9 J2 C" U
Format                                   : AC-3
/ X+ k3 E/ |, W# S- hFormat/Info                              : Audio Coding 3: `8 M8 o0 a4 p
Commercial name                          : Dolby Digital
: q4 R9 }' Z& g! b% `. }4 RCodec ID                                 : A_AC3. O' a2 b7 k# L1 e) N: D
Duration                                 : 1 h 41 min
! @: n- g8 L, S/ b7 ]Bit rate mode                            : Constant
" ~. S7 G2 K* R# o6 \2 uBit rate                                 : 640 kb/s
) h/ p6 M1 \2 i0 dChannel(s)                               : 6 channels
) D9 {& v/ |, R+ RChannel layout                           : L R C LFE Ls Rs( }7 {& e$ L, s9 {" @( v& i
Sampling rate                            : 48.0 kHz
. a' R2 y. }; f8 l/ iFrame rate                               : 31.250 FPS (1536 SPF)  q" q! b% V* M" [8 I. M% b# F
Compression mode                         : Lossy% E: ~7 S3 X; t/ ~! p8 Y# d, K& C, N
Stream size                              : 464 MiB (2%)
9 m+ \( i& K8 ~Title                                    : DD 5.1
* [0 {+ ~" U/ [0 B% G5 N, `. eLanguage                                 : Turkish
1 g: ]5 c1 a  {. ~Service kind                             : Complete Main6 O* x3 k; ~; a3 c& ?* C
Default                                  : No3 |. Z" Y1 w/ U5 V$ a
Forced                                   : No$ Y) S+ h3 ^1 G0 e  x
Original source medium                   : Blu-ray
. l8 ~, I( d8 p& nAudio #88 _, `3 e: \, L9 [7 }
ID                                       : 9- p- n8 B, n) h
Format                                   : E-AC-3
4 u, D2 f- T. a3 W8 K! {Format/Info                              : Enhanced AC-3
3 n2 I( |1 a6 a; mCommercial name                          : Dolby Digital Plus+ |% q2 `. x9 J( ~) |
Format profile                           : Blu-ray Disc  j7 a9 L7 P. I' [6 p( H7 l* I: w
Codec ID                                 : A_EAC3& `! z4 y  u3 |9 x
Duration                                 : 1 h 41 min
6 o- j- H5 `! I; F; {6 z, L1 dBit rate mode                            : Constant3 v3 A4 m/ n- t4 N6 X% d
Bit rate                                 : 768 kb/s/ F8 P8 b2 a2 N# z- M- X4 H" K
Channel(s)                               : 8 channels. L3 v/ L* z9 m. w9 \" d
Channel layout                           : L R C LFE Ls Rs Lb Rb+ U8 N$ P7 p# F* s  O
Sampling rate                            : 48.0 kHz
5 y7 j. N& i6 A3 T! [Frame rate                               : 31.250 FPS (1536 SPF)
. h/ C! x( t/ iCompression mode                         : Lossy
2 N8 v+ Q4 G7 |Stream size                              : 557 MiB (3%)4 n0 q$ Y, ^$ D  P) [
Title                                    : DDP 7.17 e. A2 u& K7 k+ K
Language                                 : Spanish3 b3 j; E# b  G+ |% c
Service kind                             : Complete Main8 o  }! J, z3 u) |
Default                                  : No
1 c4 W1 a! H/ N) a0 G$ A9 M0 Y3 }- \7 SForced                                   : No, p+ d8 c' k, E3 {
Audio #9
3 }3 U: }: S/ a, jID                                       : 10( {2 N0 X8 j) d! y- y( O* Q
Format                                   : E-AC-3
7 T7 ]( _9 t- ?) N8 a( {/ @6 u" bFormat/Info                              : Enhanced AC-3
. e, C: b% `  Q5 y" C/ c) eCommercial name                          : Dolby Digital Plus  h6 U. A( [) H- w- Z" A* G1 [9 C
Format profile                           : Blu-ray Disc
" U' ^1 U3 {1 d3 r( xCodec ID                                 : A_EAC36 _% b* d. V: v& ]
Duration                                 : 1 h 41 min
7 d9 ~- q  q" c6 B1 E1 BBit rate mode                            : Constant" Y: ]' j5 W( [. j0 F) f1 Y
Bit rate                                 : 768 kb/s
. C8 x5 F' f" b: I+ F+ |Channel(s)                               : 8 channels8 [6 [; `" R1 S4 r. e  `
Channel layout                           : L R C LFE Ls Rs Lb Rb. J' y1 O. a; \7 c2 U
Sampling rate                            : 48.0 kHz2 q7 O6 L) S+ M
Frame rate                               : 31.250 FPS (1536 SPF)
0 {7 D% m! p0 f3 g# o3 SCompression mode                         : Lossy/ a. X+ o( F( n7 {1 n8 J4 k& a
Stream size                              : 557 MiB (3%)
) a- b. h# I2 Y7 n' R2 bTitle                                    : DDP 7.1% [7 m. c4 ^4 d' V& N+ y
Language                                 : French
& @8 E* e5 F. e3 v% l7 ]% Y2 EService kind                             : Complete Main
- z2 N# i& y9 {) c% g- D2 g3 aDefault                                  : No2 o. I. D5 m# Q
Forced                                   : No: |+ y" ~# s- g8 f6 _4 U
Audio #101 d' |# S% I! ?
ID                                       : 11
: }9 k1 Z5 i- t  y4 u4 UID in the original source medium         : 4360 (0x1108)
, D/ F; f( P3 g" V; b5 b: `! D! P. kFormat                                   : AC-3; ^) o8 s# o# f: |' c/ l$ K
Format/Info                              : Audio Coding 39 x# M( H3 z/ v. ]' ?' T: ?
Commercial name                          : Dolby Digital4 o! d- e# ?+ P  U* m
Codec ID                                 : A_AC35 H0 k; L  a3 z0 V" j) v
Duration                                 : 1 h 41 min
2 C5 e. d- j3 B# X' nBit rate mode                            : Constant
$ p) C7 v" g; D9 }: nBit rate                                 : 448 kb/s  y. u3 `$ x$ B- x% [
Channel(s)                               : 6 channels. @, i1 O6 d) D7 Z& U  H) a
Channel layout                           : L R C LFE Ls Rs
: N) `$ R; m, b8 s1 ~Sampling rate                            : 48.0 kHz
* c3 q; Z5 ]: s) s" d/ O: eFrame rate                               : 31.250 FPS (1536 SPF)! z; r: O9 |/ S9 a; D5 r1 o
Compression mode                         : Lossy/ t4 u8 E) x- g1 y& n1 S8 o
Stream size                              : 325 MiB (2%)
$ ^. y% u, h) X" x' R$ X" }8 vTitle                                    : DD 5.1
# T: ?' ]9 d6 t' K! M" M' w. [Language                                 : French1 c0 J+ A; ?6 M0 d  ^# M0 k1 H
Service kind                             : Complete Main- {9 Y) y  t6 V/ u4 _
Default                                  : No' l  i+ G" W7 X' f* W6 f
Forced                                   : No6 m1 _5 _% A* ~  F- Z& {9 ?) P
Original source medium                   : Blu-ray
* y' p# y0 n; N5 F9 vText #13 w- E6 l+ U! S
ID                                       : 12
$ R. }- I% z+ Q  `3 CFormat                                   : PGS
4 S- @7 _2 }2 l3 S% f$ dMuxing mode                              : zlib+ l3 @) G( S/ j9 @! t
Codec ID                                 : S_HDMV/PGS6 S" w/ z* ?. W6 j2 E
Codec ID/Info                            : Picture based subtitle format used on BDs/HD-DVDs
! y' N, M  Y( O8 L' l1 X2 @Duration                                 : 1 h 32 min2 h" H* K6 e9 }0 y. M
Bit rate                                 : 71.7 kb/s
' p8 ?% j# \4 M' AFrame rate                               : 0.675 FPS
" b# \; p" a4 N! u! \Count of elements                        : 3752
( }% f" N$ M" \Stream size                              : 47.5 MiB (0%)
1 S0 C, D0 c3 a0 `Language                                 : English
. M2 t$ B: n' m0 H4 v& MDefault                                  : Yes
1 t$ [, p4 x# }) I; H) wForced                                   : No2 L; Y/ D" G  D# q
Text #2. i  f. Y: @6 u4 O5 ^
ID                                       : 13
9 z" L% B3 N$ D2 c& `# kID in the original source medium         : 4609 (0x1201)
  Y- q! x  g6 A# v' v3 v0 x9 ]6 }Format                                   : PGS1 j- ?* r, Z0 F5 H- @: i! B! m7 J
Muxing mode                              : zlib
7 @/ l' K5 n7 e/ d' qCodec ID                                 : S_HDMV/PGS
- d+ b' O3 Q- P; G! @% G' H- g; DCodec ID/Info                            : Picture based subtitle format used on BDs/HD-DVDs
, l- N2 z8 R3 E' E4 k. o# DDuration                                 : 1 h 34 min
' l4 H9 K% ?5 M) S( \Bit rate                                 : 243 b/s7 t  d/ i9 ^4 N' j# X
Frame rate                               : 0.002 FPS" q! ?+ F' F$ C* M# s) d  U
Count of elements                        : 14
- q8 K8 P% ^" L1 tStream size                              : 169 KiB (0%)8 M( B, B* w5 J7 n
Language                                 : German$ n9 s1 u4 N  N/ |: j! T
Default                                  : No, a: z* Z; f: X& c: q  T
Forced                                   : No
& ]4 l, B/ V/ a/ OOriginal source medium                   : Blu-ray
" [+ O0 f. B( n4 y( P: D$ n' cText #3
) D, v+ S# y; k' n/ e1 XID                                       : 14
! i) Q! H6 [, ^ID in the original source medium         : 4610 (0x1202)
# A( i7 Y. u# P/ BFormat                                   : PGS
; ~! y, k+ ]* [4 A% `! VMuxing mode                              : zlib; k1 i- N3 l) W* B" b
Codec ID                                 : S_HDMV/PGS/ U2 t7 e0 K" B# T# e
Codec ID/Info                            : Picture based subtitle format used on BDs/HD-DVDs
9 y. P* X3 S0 }2 a2 A- QDuration                                 : 1 h 40 min
' E# H: j: l$ n; m" l1 F2 ?Bit rate                                 : 35.0 kb/s$ C. g, F+ Z7 W
Frame rate                               : 0.385 FPS
6 A5 H! x/ m( b, I4 ECount of elements                        : 2324
% T& K. A  v& B4 p( O6 o7 wStream size                              : 25.2 MiB (0%)
( a( a9 R. l" JLanguage                                 : German
# l5 @2 R7 \; F) ^  T! zDefault                                  : No5 {6 n- N9 q, a& g3 r3 y
Forced                                   : No0 N; z+ s$ H" K. J( T( o% g+ Y+ Q
3d-plane                                 : 1. `/ I- Y4 O9 j  s
Original source medium                   : Blu-ray
& W, P6 I# @0 i6 l& O: nText #4
- X2 P' S  |1 ]ID                                       : 15. B$ i0 F9 g# U5 x9 i
ID in the original source medium         : 4611 (0x1203)
8 z' i  @2 Q8 t  E& eFormat                                   : PGS
& A7 E; a. {, ~* R  }/ ^0 W! Y6 |1 z$ HMuxing mode                              : zlib9 T* J# \7 S3 A* v
Codec ID                                 : S_HDMV/PGS
9 Z. q/ X/ ~5 ~! d8 m  x2 T4 oCodec ID/Info                            : Picture based subtitle format used on BDs/HD-DVDs
. R' Z8 e$ A% A9 |9 L6 x- wDuration                                 : 1 h 34 min7 b: t9 _: f) f" Q# f
Bit rate                                 : 165 b/s
) p7 H  [% T9 {" q6 n3 q: O7 @Frame rate                               : 0.002 FPS5 \& n8 U+ b' p/ H% o! u# f  N
Count of elements                        : 12
4 ^- U! k2 v# w9 p4 V- cStream size                              : 115 KiB (0%)
$ W5 C7 V, w7 ^4 ]3 R' FLanguage                                 : Italian
- L7 G$ u+ R3 ]* S4 kDefault                                  : No0 m. o! r* X7 S2 V! V+ ]
Forced                                   : No
/ |) [% L+ d( R( D& MOriginal source medium                   : Blu-ray
) V" Y% B1 j$ S& h( xText #5
: F+ J8 t! i% ]+ o& b. c( q$ ZID                                       : 16
& g; j6 f2 R) N" j4 J6 D: SID in the original source medium         : 4612 (0x1204)0 I% n5 j( n1 w# x2 x. Q/ I
Format                                   : PGS9 Y3 O! P2 h7 h* X
Muxing mode                              : zlib
9 T1 k1 w8 ^* F, J% zCodec ID                                 : S_HDMV/PGS8 Z3 S' d) ~9 B% ?( U2 z
Codec ID/Info                            : Picture based subtitle format used on BDs/HD-DVDs
2 U; L; B8 O: g# k2 `5 n, L9 LDuration                                 : 1 h 40 min8 U9 G" ^# \' A, U* x8 m, i5 R
Bit rate                                 : 34.9 kb/s
9 h! e% ^' d* j3 Z; f3 UFrame rate                               : 0.419 FPS4 s% q& [- S6 @5 Y7 g& `- E/ P) \
Count of elements                        : 2524  }5 [/ ]! p. U1 y
Stream size                              : 25.1 MiB (0%)2 h- L8 `. ?- y
Language                                 : Italian
2 l' W1 Y/ D3 tDefault                                  : No
( ~8 a0 o* {9 S) ^; u6 y4 zForced                                   : No6 d9 O  R0 S& o  L7 f4 e4 a
Original source medium                   : Blu-ray
* `( |" q& p2 V  I  bText #6
; Y7 m! j5 v1 `  J2 EID                                       : 17
& d  K. o0 i: oID in the original source medium         : 4613 (0x1205)
9 S4 a$ h3 e% L- T5 h1 l: @Format                                   : PGS0 K8 T: S% {  x) A: W  B
Muxing mode                              : zlib
+ D: z0 }! ~6 S( e' C' P" ~5 X& YCodec ID                                 : S_HDMV/PGS8 A* O2 `# h0 Z- M% k8 A& [: C
Codec ID/Info                            : Picture based subtitle format used on BDs/HD-DVDs
7 h) w) Q" o) z* `2 j; ?Duration                                 : 1 h 34 min2 Q' C+ {$ V* ]! c
Bit rate                                 : 302 b/s
- l4 t0 c; p! K0 `8 S- d  y( HFrame rate                               : 0.004 FPS
) g4 W. k' e4 z3 c* ^; KCount of elements                        : 24
- u- W) o5 z: S1 L& FStream size                              : 210 KiB (0%)
4 q6 I3 l0 I8 C6 x7 }* @6 NLanguage                                 : Turkish
! Y$ I) b! a1 [* jDefault                                  : No
! P. R8 U6 w1 u, JForced                                   : No
2 M( v5 {$ J$ q4 ], S7 z' s6 ^/ K$ Q, T# i! kOriginal source medium                   : Blu-ray
* V7 A: f& {$ V, G$ MText #7, O$ y+ r" _$ f3 R2 l, u
ID                                       : 18
; M! X* |+ K  ^7 oID in the original source medium         : 4614 (0x1206)
& g+ z/ Y" b8 k4 M' aFormat                                   : PGS5 w! A" R5 N6 ~* r$ Z5 n( ^
Muxing mode                              : zlib# a/ Q: v; `. u4 l+ _2 v) u! X3 c, w
Codec ID                                 : S_HDMV/PGS
' Y. b# A1 T) b6 sCodec ID/Info                            : Picture based subtitle format used on BDs/HD-DVDs
! w2 ^; D% e4 ~0 n; j# y! oDuration                                 : 1 h 40 min2 k: {/ R& i8 P3 G, {
Bit rate                                 : 35.7 kb/s
3 e; M; C0 j8 qFrame rate                               : 0.464 FPS2 |% A& Q* t+ K" v/ U( L1 a
Count of elements                        : 2800
  X* O) {; u1 n1 TStream size                              : 25.7 MiB (0%)$ U- A$ v4 M  s0 E
Language                                 : Turkish- s7 }7 I/ c; ~* Y  |; E4 T
Default                                  : No
  _6 a$ c3 q* Z2 r0 x# mForced                                   : No
3 d! K3 L4 S. w' WOriginal source medium                   : Blu-ray
+ x+ n# y8 c, x% c4 b  s% G$ ]Text #8: |* I) O9 ?6 X( f& ^
ID                                       : 19
5 J+ n8 U* P4 f8 EID in the original source medium         : 4615 (0x1207)
9 E# \0 x  a) ]Format                                   : PGS
; H# {$ z2 Z# k4 ^5 HMuxing mode                              : zlib' ?( [' i2 k  Z; ?2 L
Codec ID                                 : S_HDMV/PGS, J4 j! o, e# \  f; `5 }
Codec ID/Info                            : Picture based subtitle format used on BDs/HD-DVDs
& ]) [+ C& |4 FDuration                                 : 1 h 34 min
' s( x" X  @% Q2 BBit rate                                 : 390 b/s$ o! ]% H, w% x1 J9 X/ X# m( W
Frame rate                               : 0.005 FPS
0 f/ [) x/ c" Y& G4 l7 LCount of elements                        : 26
, B; \5 [* ~1 [- `6 \9 xStream size                              : 272 KiB (0%)
: m. K) C# z  F1 `/ KLanguage                                 : Spanish
" v% g6 J5 E% f4 i3 O9 {% i$ l1 }Default                                  : No2 V" B- r$ G$ Q0 u8 q6 ~9 |& w' o
Forced                                   : No
; f3 W6 L  h' _( T& S, ZOriginal source medium                   : Blu-ray- E$ E$ f+ j( f0 a3 b* @
Text #9* d' a1 q1 r5 H0 @8 Y5 I& o
ID                                       : 20
- b4 Y* G2 i, D! O5 X- PID in the original source medium         : 4616 (0x1208)
" ~2 N% j, O3 U0 M7 G  B) {Format                                   : PGS
6 H3 T, A2 U6 ?( W1 n3 _Muxing mode                              : zlib
  N8 t' a4 f- S4 r$ n# oCodec ID                                 : S_HDMV/PGS1 y9 l: s7 N# V) L
Codec ID/Info                            : Picture based subtitle format used on BDs/HD-DVDs3 g# V2 s6 L+ c5 ?, i9 P# M/ u  c9 R- D
Duration                                 : 1 h 40 min
# U. v% M$ a+ h" ]. ]: B9 M- YBit rate                                 : 35.0 kb/s& X2 j, o) s( ?' O  k% y
Frame rate                               : 0.463 FPS2 y6 y; |, I8 M  _4 d3 M
Count of elements                        : 27943 ~& i6 ]. |# ]- Q
Stream size                              : 25.2 MiB (0%)/ Q4 J2 v2 ^: K: e
Language                                 : Spanish
7 O, m, o& _7 @$ j- `Default                                  : No
! ?4 s, u) i* _: h% LForced                                   : No" B; b3 a1 H- j; _$ |
Original source medium                   : Blu-ray$ u' }4 V, D0 t4 _/ I) i
Text #10
1 H0 @+ l) m# {6 T5 n. j, ~ID                                       : 21# g( A" A2 Z3 Y+ U1 v
ID in the original source medium         : 4617 (0x1209)' r/ [, W3 {0 Q2 x8 P; R, q, L$ _
Format                                   : PGS
. c! q) l5 e$ L) p" L& e1 Z! `0 d  FMuxing mode                              : zlib" H; G/ g$ m" X9 \5 G! R
Codec ID                                 : S_HDMV/PGS# L4 c/ Z- H$ }" O
Codec ID/Info                            : Picture based subtitle format used on BDs/HD-DVDs2 }0 E7 ?$ O, P2 `  g# z
Duration                                 : 1 h 36 min
9 |1 @2 F6 ~' ~) w$ v  v8 Z8 J! cBit rate                                 : 542 b/s
; z6 ~7 U7 Q0 S2 G  S+ mFrame rate                               : 0.006 FPS- I1 ?& Y/ J0 m9 S
Count of elements                        : 34  L' e* [* ~! V6 z
Stream size                              : 385 KiB (0%)
4 Q# U$ I5 E' z) c; zLanguage                                 : French* C* ?2 B3 }0 c- }
Default                                  : No2 O% s* m2 k6 s. A- H
Forced                                   : No
( U- ]$ _' _* ]8 E- q4 lOriginal source medium                   : Blu-ray
* R* X+ J  N4 i; J1 lText #11
. Z! i" A. `6 _9 w% k( {( }/ E. e! kID                                       : 222 U& n7 O& `/ ^) C7 h  m
ID in the original source medium         : 4618 (0x120A)$ ^! F: t+ F6 S/ v: w# K
Format                                   : PGS: l* s2 p  r- A. c2 J
Muxing mode                              : zlib
% j; u( `, U( A3 E; e& R$ V; I4 M* WCodec ID                                 : S_HDMV/PGS
- _% K' C0 |; L9 x. L4 V" A" }4 S+ oCodec ID/Info                            : Picture based subtitle format used on BDs/HD-DVDs/ P. E! [) f5 u3 W
Duration                                 : 1 h 40 min
2 ^5 c0 g0 E+ Q. J. P) K3 c' f( _Bit rate                                 : 36.6 kb/s- b; W9 U: R  ~. Q
Frame rate                               : 0.462 FPS
! |. Y4 f" w! T7 c0 r0 M- v6 WCount of elements                        : 2784
7 E9 @2 R3 `/ c( O" HStream size                              : 26.3 MiB (0%)
* e9 r$ Q, m( ?7 SLanguage                                 : French/ d3 _, T. p3 d+ J: V7 a
Default                                  : No
! u; m! j/ b. f' _+ {7 YForced                                   : No
- {" Q8 u' E& k! @7 @: d9 o) ]Original source medium                   : Blu-ray( f5 t- y# |0 f- e+ [$ |
Text #12
1 O) u1 n& s8 ~0 e2 d" H6 G4 u9 rID                                       : 23, v, J6 g$ q6 b! U2 j
ID in the original source medium         : 4619 (0x120B)3 R+ I* D' h9 Y  N- {6 V+ d
Format                                   : PGS
$ I1 m7 l' A$ xMuxing mode                              : zlib
3 F. H* X! y+ [3 h( i0 LCodec ID                                 : S_HDMV/PGS
% x  [9 o' w  F2 N! ^Codec ID/Info                            : Picture based subtitle format used on BDs/HD-DVDs5 A) G9 B) N: @6 |; D+ L
Duration                                 : 1 h 40 min
; Q1 X4 S; Z! mBit rate                                 : 30.7 kb/s
" B; Y$ _2 N, U+ Q( B- m8 ?% K5 FFrame rate                               : 0.307 FPS+ F4 J$ z- f: Z
Count of elements                        : 1852
& P( W. O* G5 O4 a* u' HStream size                              : 22.1 MiB (0%)
& H* n6 D7 b5 F* [Language                                 : Dutch' T3 h, ^* j! c7 [1 V( o5 H
Default                                  : No
$ L1 m9 A6 k1 O& }+ @6 ?Forced                                   : No
7 S+ v2 T0 @+ f0 i4 }: Y/ qOriginal source medium                   : Blu-ray
/ g1 V7 A( J) m# C  bText #13
4 t* n2 u/ v- C3 tID                                       : 24
. G" M: R+ g5 s7 m( w/ o" pID in the original source medium         : 4620 (0x120C)
3 r: {# I& |+ KFormat                                   : PGS2 [0 i+ A" R6 Z4 k* ?8 f+ |
Muxing mode                              : zlib
7 |: X$ z0 I  c' @, q4 z; j; {% rCodec ID                                 : S_HDMV/PGS, c' Z* J% e; X8 p8 \0 p/ e& `" m6 t
Codec ID/Info                            : Picture based subtitle format used on BDs/HD-DVDs
3 K. M6 d% v3 [5 b/ q4 M; LDuration                                 : 1 h 40 min" ~9 t1 E! n3 [& b7 M" d: q
Bit rate                                 : 31.0 kb/s
* ^( G( A& ?, ^' I8 |  D5 eFrame rate                               : 0.307 FPS1 {0 G. y) U; W/ d8 t1 s. \- O
Count of elements                        : 1852
$ @3 D  y1 [( c  [" Y5 m( uStream size                              : 22.3 MiB (0%)0 p* f8 h- r& M, N
Language                                 : Danish/ ]4 k8 u# ]" p; H. s/ R
Default                                  : No  y* J' d$ Z6 V" l6 L& H. C
Forced                                   : No
0 c% _  o6 P; ROriginal source medium                   : Blu-ray) B4 [  q) s# @$ P" D
Text #143 N2 N- m/ }' N0 \, L8 }
ID                                       : 25
. D! A7 A  ^/ ^2 ~& f) E3 x1 eID in the original source medium         : 4621 (0x120D)
" M4 q: l7 _; D! gFormat                                   : PGS, d9 S, A4 R- e4 |7 Y
Muxing mode                              : zlib5 u& m4 j3 j/ W6 n5 O
Codec ID                                 : S_HDMV/PGS# Q4 N5 V5 ~5 d+ K
Codec ID/Info                            : Picture based subtitle format used on BDs/HD-DVDs) J3 n8 H: s' e$ I  ]% d" r
Duration                                 : 1 h 40 min6 V/ i0 Y; a/ i( ^8 v0 l
Bit rate                                 : 29.0 kb/s
: D: o/ e5 V; k7 W  O9 h) DFrame rate                               : 0.372 FPS
# Y7 A) I! k1 `9 G$ \" l0 [Count of elements                        : 2243+ ?& C# P5 y$ K; B5 w2 I* A; A
Stream size                              : 20.8 MiB (0%)
+ _" E8 C4 O. z/ Q' DLanguage                                 : Finnish7 @0 `0 |- e4 c. B1 r3 t) Z
Default                                  : No
  b% m' B! ]( ?* \! W2 \Forced                                   : No
* S. l& _" z0 I4 s, J/ QOriginal source medium                   : Blu-ray, p$ h& r$ t3 l5 z# _+ E) p+ I! d
Text #15  [1 P1 {5 n% [
ID                                       : 265 P4 ~# E9 i3 z: C9 ^. w: k
ID in the original source medium         : 4622 (0x120E); n/ K4 a& n9 t( j8 D
Format                                   : PGS
, V  c5 K; |9 {- F) C+ CMuxing mode                              : zlib
4 z9 d5 Z3 ?3 S, Z* c% F% wCodec ID                                 : S_HDMV/PGS9 i7 U) }3 o7 ~: H1 Y5 |- W
Codec ID/Info                            : Picture based subtitle format used on BDs/HD-DVDs# }, w% C, E1 h4 C; `. H% O
Duration                                 : 1 h 40 min
+ B0 [' |+ @* b: NBit rate                                 : 33.7 kb/s
; X/ k3 R- P( d7 v4 L( dFrame rate                               : 0.463 FPS
* n; f0 t' x2 y1 [8 s: jCount of elements                        : 2790
& v, S3 l, `" p" X3 e0 f7 `Stream size                              : 24.2 MiB (0%)
5 R3 t( U; e5 a9 C& VLanguage                                 : Norwegian# \, D1 q5 M2 {( g/ \; p
Default                                  : No
- C( s/ w8 y9 SForced                                   : No
3 Z- l3 P! s. ]' s9 y5 E2 Q) J8 bOriginal source medium                   : Blu-ray- O! H8 @) O6 U5 L- x
Text #16; l% M. z% P7 o" j% P
ID                                       : 27% {/ z# N& [# Q3 F5 U
ID in the original source medium         : 4623 (0x120F)
* J% t6 u' \; c6 w% |7 v' A- u- xFormat                                   : PGS
% M! i5 h" R7 `; z0 d) `Muxing mode                              : zlib
0 d* W+ l# O9 }3 Y/ Y: ~) D& jCodec ID                                 : S_HDMV/PGS$ x: p! z) A8 [+ ?) v+ |
Codec ID/Info                            : Picture based subtitle format used on BDs/HD-DVDs/ s8 N9 l; U! D
Duration                                 : 1 h 40 min( L) j  B; P! f' z
Bit rate                                 : 30.3 kb/s
1 z, l" U/ E" X/ B1 J: EFrame rate                               : 0.317 FPS
2 N; r* m2 p; a# B7 Y* LCount of elements                        : 1913
" u' t5 j8 f  X- Z  q6 cStream size                              : 21.7 MiB (0%)
& v, R; y2 t0 ]! `/ [+ a; f1 tLanguage                                 : Swedish
7 s+ w2 N7 c" O3 TDefault                                  : No
+ ^- Y( K6 g% s& E! ?: S7 g% n+ V- eForced                                   : No
; N. l3 Y9 G0 F$ L- s# ?Original source medium                   : Blu-ray
! ?$ B/ ?/ h2 MText #17
1 F$ i( K* t* g7 I9 VID                                       : 28
5 T7 A2 [  g9 qID in the original source medium         : 4624 (0x1210)
8 d+ M- b- E6 H; b) A1 SFormat                                   : PGS
; `) n. o3 v2 T0 d6 O7 L  iMuxing mode                              : zlib, y  _# G; M# E8 k
Codec ID                                 : S_HDMV/PGS) J0 I" g3 z9 {  l3 d% i# J/ N
Codec ID/Info                            : Picture based subtitle format used on BDs/HD-DVDs
7 @9 c) \( ]4 s4 p3 @7 F- E" uDuration                                 : 1 h 40 min9 s! O7 m  w" ~! M1 b4 \# V
Bit rate                                 : 19.0 kb/s$ T" L) {/ d/ F5 J8 r
Frame rate                               : 0.458 FPS# o) f+ e* e- A
Count of elements                        : 2762
9 E7 q, w8 T! v% hStream size                              : 13.7 MiB (0%)
0 a2 U5 r* {% w8 P# hLanguage                                 : Arabic6 B* t: `4 H- ^
Default                                  : No
3 C) p; A* m0 A  t8 T& n+ v4 ^* nForced                                   : No
: X/ b+ d- |" ^2 a1 k; SOriginal source medium                   : Blu-ray
9 b9 J' r  ~% X; T0 M- CText #18
# c" Z: Z, }+ [4 FID                                       : 29
3 n/ n0 H( H& FID in the original source medium         : 4625 (0x1211)
( z# A) {. q0 x3 n3 l  U: @& t8 t: S* cFormat                                   : PGS; |  |" ], z8 Z9 X0 X4 P
Muxing mode                              : zlib
6 w6 m& \6 j4 ^, }1 wCodec ID                                 : S_HDMV/PGS
" n6 E0 c; c" m3 a4 DCodec ID/Info                            : Picture based subtitle format used on BDs/HD-DVDs
: m. F3 u- o: K' ?% L' y- ?; _Duration                                 : 1 h 40 min1 e2 \( a5 f; p7 a* t- {+ _1 C: u' r
Bit rate                                 : 37.2 kb/s
& h- C0 F2 s( SFrame rate                               : 0.467 FPS8 P& \1 b+ }0 B9 c6 K- }
Count of elements                        : 2818  x5 V0 o6 @4 c
Stream size                              : 26.7 MiB (0%)
2 q" V  ^# h! OLanguage                                 : Icelandic
% ?' ^8 n6 z7 L3 ^: r, i/ x( D5 WDefault                                  : No) [: `! {  _& j! i7 d
Forced                                   : No
6 M7 ?  {: }$ ]. O) T( F- oOriginal source medium                   : Blu-ray
+ a/ m  n8 `/ q; z, S; h2 YMenu' f/ q6 z9 N* _2 d
00:00:00.000                             : en:Chapter 01
  M  {+ G5 {$ [3 i8 y00:06:18.711                             : en:Chapter 022 d  q# n5 h. d& A. \
00:11:56.132                             : en:Chapter 03: T& Z! a9 }# ~  F1 N; a
00:18:36.657                             : en:Chapter 04
) E  F1 B# T* q, j00:22:00.861                             : en:Chapter 05
9 _2 _" T1 J1 i! w+ D8 T1 u00:29:29.559                             : en:Chapter 06: l5 A3 {2 X7 I% q8 o
00:35:57.488                             : en:Chapter 07  N! M! o* y+ }0 s! q; Q) d
00:39:07.803                             : en:Chapter 08, J0 C: ~/ u/ I7 {" y* f. V
00:45:47.077                             : en:Chapter 09! S9 r" y5 A( T0 H0 \
00:48:28.238                             : en:Chapter 10) p$ q/ _+ H+ t- E7 j
00:54:54.791                             : en:Chapter 11
0 u6 S; G+ [  ?/ W0 Y01:01:48.705                             : en:Chapter 12
$ u# T0 G( N/ g/ V01:04:54.473                             : en:Chapter 13
0 M3 h, L, p! {5 \1 X01:09:45.055                             : en:Chapter 14
" o3 u- v* Z! V* `6 f2 i( K) h2 _. G01:14:56.950                             : en:Chapter 15
% [. d" s& `7 }/ [01:18:39.464                             : en:Chapter 16
* V3 ?3 s0 F' |% l+ x+ r% `7 b  r' f5 f- c01:23:37.262                             : en:Chapter 17
7 d$ |3 g4 C! @% d  u0 g0 J01:30:01.312                             : en:Chapter 18
* Z7 [: {! v" {: [) ~0 A( q( _
蓝光高清网提示您 点击下方附件名称 即可开始下载
  n* }" X5 p1 ?8 P+ V
. p* [& [, _& J0 |" l' I# p6 E多版本下载时请注意区分7 e5 d$ V. q7 `5 M8 m2 T

- R& Q. o; k/ F% ~3 f多力特的奇幻冒险 Dolittle.2020.1080p.3D.BluRay.x264.TrueHD.7.1.Atmos-3D原盘电影下载4 }% ]  D/ g& n* d7 n
9 z+ V* D* e4 F: A5 G" T) L3 d0 _
多力特的奇幻冒险 Dolittle.2020.1080p.3D.BluRay.Half-SBS.x264.TrueHD.7.1.Atmos-FGT 19.47GB7 h7 i* r2 D# d; e9 u3 R" ]

Dolittle.2020.1080p.3D.BluRay.Half-SBS.x264.TrueHD.7.1.Atmos-FGT.torrent ( 24.98 KB )

, T. I3 u- P- n% s# c) ^
* l* |: p8 t: `( ^
多力特的奇幻冒险 Dolittle.2020.1080p.3D.BluRay.Half-OU.x264.DTS-HD.MA.7.1-FGT 20.24GB
+ d) {8 ^: b8 G$ p: C2 a  @

Dolittle.2020.1080p.3D.BluRay.Half-OU.x264.DTS-HD.MA.7.1-FGT.torrent ( 25.95 KB )


& Q) x2 h! _" e# a2 h
5 R1 l8 s! u+ k, a: }& c+ `7 u多力特的奇幻冒险 Dolittle.2020.1080p.3D.BluRay.Half-OU.x264.TrueHD.7.1.Atmos-FGT 19.87GB
- z4 t  O1 n# O' S* b# N

Dolittle.2020.1080p.3D.BluRay.Half-OU.x264.TrueHD.7.1.Atmos-FGT.torrent ( 25.49 KB )


2 d8 Y- `- I& ?, v1 C0 t' k7 t
加入蓝光高清网VIP会员  无限制下载本站所有资源---点这里

资源下载、资源播放、字幕使用、无法下载等常见问题---点这里
回复

使用道具 举报

全部回复0 显示全部楼层

发表回复

您需要登录后才可以回帖 登录 | 立即注册

本版积分规则

开通会员 帮助中心 返回顶部 返回列表