本站已运行

蓝光高清网

搜索
开启左侧

霹雳亚当 / 黑亞當(港/台)/黑亚当4k.Black.Adam.2022.2160p.WEB-DL.x265.10bit.SDR.DDP5.1.Atmos-电影下载

蓝鸟 发表于 5 天前 | 显示全部楼层 |阅读模式
黑亚当 豆瓣评分: 5.8分
上映时间:2022年
类型:动作 科幻 奇幻 冒险 
地区:美国 
导演:佐米·希尔拉
主演:道恩·强森 / 阿尔迪斯·霍吉 / 皮尔斯·布鲁斯南 / 诺亚·琴蒂内奥 / 莎拉·夏希
画质标准:4K SDR  封装音轨:Dolby TrueHD 5.1 
本帖最后由 蓝鸟 于 2022-11-22 18:12 编辑

简       介

  这个世界需要超级英雄…… 黑亚当降临。
   黑亚当(道恩·强森 饰)被赋予了古代诸神无所不能的力量,但很快就被封印。近五千年后,他终于重见天日,并将在现代世界以独一无二的方式行使正义。


影片参数
霹雳亚当 / 黑亞當(港/台)/黑亚当4k.Black.Adam.2022.2160p.WEB-DL.x265.10bit.SDR.DDP5.1.Atmos-电影信息
Video
ID : 1
Format : HEVC
Format/Info : High Efficiency Video Coding
Format profile : Main 10@L5@High
Codec ID : V_MPEGH/ISO/HEVC
Duration : 2 h 4 min
Bit rate : 11.8 Mb/s
Width : 3 840 pixels
Height : 1 606 pixels
Display aspect ratio : 2.40:1
Frame rate mode : Constant
Frame rate : 23.976 (24000/1001) FPS
Color space : YUV
Chroma subsampling : 4:2:0
Bit depth : 10 bits
Bits/(Pixel*Frame) : 0.080
Stream size : 10.3 GiB (94%)
Language : English
Default : Yes
Forced : No
Color range : Limited
Color primaries : BT.709
Transfer characteristics : BT.709
Matrix coefficients : BT.709

Audio
ID : 2
Format : E-AC-3 JOC
Format/Info : Enhanced AC-3 with Joint Object Coding
Commercial name : Dolby Digital Plus with Dolby Atmos
Codec ID : A_EAC3
Duration : 2 h 4 min
Bit rate mode : Constant
Bit rate : 768 kb/s
Channel(s) : 6 channels
Channel layout : L R C LFE Ls Rs
Sampling rate : 48.0 kHz
Frame rate : 31.250 FPS (1536 SPF)
Compression mode : Lossy
Stream size : 686 MiB (6%)
Language : English
Service kind : Complete Main
Default : Yes
Forced : No
Complexity index : 16
Number of dynamic objects : 15
Bed channel count : 1 channel
Bed channel configuration : LFE

Text #1
ID : 3
Format : UTF-8
Codec ID : S_TEXT/UTF8
Codec ID/Info : UTF-8 Plain Text
Duration : 2 h 0 min
Bit rate : 80 b/s
Frame rate : 0.246 FPS
Count of elements : 1771
Stream size : 70.6 KiB (0%)
Title : English
Language : English
Default : No
Forced : No

Text #2
ID : 4
Format : UTF-8
Codec ID : S_TEXT/UTF8
Codec ID/Info : UTF-8 Plain Text
Duration : 1 h 42 min
Bit rate : 2 b/s
Frame rate : 0.012 FPS
Count of elements : 76
Stream size : 1.61 KiB (0%)
Title : English [Forced]
Language : English
Default : Yes
Forced : Yes

Text #3
ID : 5
Format : UTF-8
Codec ID : S_TEXT/UTF8
Codec ID/Info : UTF-8 Plain Text
Duration : 2 h 3 min
Bit rate : 63 b/s
Frame rate : 0.170 FPS
Count of elements : 1260
Stream size : 57.1 KiB (0%)
Title : Arabic
Language : Arabic
Default : No
Forced : No

Text #4
ID : 6
Format : UTF-8
Codec ID : S_TEXT/UTF8
Codec ID/Info : UTF-8 Plain Text
Duration : 2 h 3 min
Bit rate : 38 b/s
Frame rate : 0.170 FPS
Count of elements : 1264
Stream size : 34.7 KiB (0%)
Title : Chinese Yue
Language : Chinese
Default : No
Forced : No

Text #5
ID : 7
Format : UTF-8
Codec ID : S_TEXT/UTF8
Codec ID/Info : UTF-8 Plain Text
Duration : 2 h 3 min
Bit rate : 37 b/s
Frame rate : 0.174 FPS
Count of elements : 1294
Stream size : 34.3 KiB (0%)
Title : French
Language : French
Default : No
Forced : No

Text #6
ID : 8
Format : UTF-8
Codec ID : S_TEXT/UTF8
Codec ID/Info : UTF-8 Plain Text
Duration : 1 h 56 min
Bit rate : 40 b/s
Frame rate : 0.179 FPS
Count of elements : 1254
Stream size : 34.5 KiB (0%)
Title : Korean
Language : Korean
Default : No
Forced : No

Text #7
ID : 9
Format : UTF-8
Codec ID : S_TEXT/UTF8
Codec ID/Info : UTF-8 Plain Text
Duration : 2 h 3 min
Bit rate : 43 b/s
Frame rate : 0.170 FPS
Count of elements : 1258
Stream size : 39.3 KiB (0%)
Title : Latin America Spanish
Language : Spanish
Default : No
Forced : No

Text #8
ID : 10
Format : UTF-8
Codec ID : S_TEXT/UTF8
Codec ID/Info : UTF-8 Plain Text
Duration : 2 h 3 min
Bit rate : 43 b/s
Frame rate : 0.167 FPS
Count of elements : 1237
Stream size : 39.0 KiB (0%)
Title : Portuguese Brazilian
Language : Portuguese
Default : No
Forced : No

蓝光高清网提示您 点击下方附件名称 即可开始下载

多版本下载时请注意区分

霹雳亚当 / 黑亞當(港/台)/黑亚当4k.Black.Adam.2022.2160p.WEB-DL.x265.10bit.SDR.DDP5.1.Atmos-电影下载

黑亚当4k.Black.Adam.2022.2160p.WEB-DL.x265.10bit.SDR.DDP5.1.Atmos【11.06 GB】

黑亚当.Black.Adam.2022.2160p.WEB-DL.x265.10bit.SDR.DDP5.1.Atmos-WHITEMICHAEL.torrent ( 14.64 KB )



黑亚当4k.Black.Adam.2022.2160p.WEB-DL.x265.10bit.HDR.DDP5.1.Atmos【22.13 GB】

黑亚当.Black.Adam.2022.2160p.WEB-DL.x265.10bit.HDR.DDP5.1.Atmos-WHITEMICHAEL.torrent ( 28.48 KB )



黑亚当4k.Black.Adam.2022.2160p.WEB-DL.DDP5.1.Atmos.DV.MP4.x265【杜比视界】【13.18GB】

黑亚当.Black.Adam.2022.2160p.WEB-DL.DDP5.1.Atmos.DV.MP4.x265-DVSUX.torrent ( 17.12 KB )



黑亚当4k.Black.Adam.2022.2160p.WEB-DL.DDP5.1.Atmos.DV.MKV.x265【杜比视界】【13.32 GB】

黑亚当.Black.Adam.2022.2160p.WEB-DL.DDP5.1.Atmos.DV.MKV.x265-WHITEMICHAEL.torrent ( 17.46 KB )



黑亚当4k.Black.Adam.2022.2160p.MA.WEB-DL.x265.10bit.SDR.DDP5.1.Atmos【22.20 GB】

黑亚当.Black.Adam.2022.2160p.MA.WEB-DL.x265.10bit.SDR.DDP5.1.Atmos-CM.torrent ( 28.39 KB )



黑亚当4k.Black.Adam.2022.2160p.MA.WEB-DL.x265.10bit.HDR.DDP5.1.Atmos【22.23 GB】

黑亚当.Black.Adam.2022.2160p.MA.WEB-DL.x265.10bit.HDR.DDP5.1.Atmos-CM.torrent ( 28.45 KB )




黑亚当 4k电影中文字幕下载
https://www.4kii.com/thread-116115-1-1.html


加入蓝光高清网VIP会员  无限制下载本站所有资源---点这里

资源下载、资源播放、字幕使用、无法下载等常见问题---点这里
回复

使用道具 举报

全部回复6 显示全部楼层
gdlmxia 发表于 5 天前 | 显示全部楼层
太好啦&萬分感謝版主的無私發佈分享%
回复 支持 反对

使用道具 举报

dongshouba手机认证 发表于 4 天前 | 显示全部楼层
感谢分享
回复

使用道具 举报

PCHUN 发表于 4 天前 | 显示全部楼层
Thanks for sharing
回复 支持 反对

使用道具 举报

1080i 发表于 4 天前 | 显示全部楼层
T.h.a.n.k.s
回复

使用道具 举报

隐形人手机认证 发表于 4 天前 | 显示全部楼层
好好好好好好好好
回复 支持 反对

使用道具 举报

gdlmxia 发表于 前天 15:12 | 显示全部楼层
太好啦&萬分感謝版主的無私發佈分享%
回复 支持 反对

使用道具 举报

发表回复

您需要登录后才可以回帖 登录 | 立即注册

本版积分规则

开通会员 帮助中心 返回顶部 返回列表