本站已运行

蓝光高清网

搜索
开启左侧

蒂尔 4k.Till.2022.2160p.WEB-DL.x265.10bit.SDR.DD5.1-电影下载

蓝鸟 发表于 5 天前 | 显示全部楼层 |阅读模式
蒂尔 豆瓣评分: 7.7分
上映时间:2022年
类型:剧情 传记 历史 
地区:美国 
导演:池娜叶·楚库
主演:丹妮尔·戴德怀勒 / 乌比·戈德堡 / 西恩·帕特里克·汤玛斯 / 海莉·贝内特 / 弗兰基·费森
画质标准:4K SDR  封装音轨:Dolby TrueHD 5.1 
简       介


  乌比·戈德堡、丹妮尔·戴德怀勒(《脱衣舞俱乐部》)将主演传记新片[蒂尔](Till,暂译)。池娜叶·楚库([宽宥])执导,池娜叶根据基思·博坎普与迈克尔·赖利撰写的初版剧本改写。故事讲述了美国黑人民权运动中的一桩真实事件,1955年,年仅14岁的埃米特·路易斯·蒂尔被指责与一名白人妇女有不正当关系后,被绑架并被残忍地杀害。两名白人嫌疑人在全白人陪审团的审判下,被判无罪。埃米特的母亲玛米·蒂尔-莫布利(丹妮尔饰)为了帮儿子伸张正义,决定在埃米特的葬礼上敞开棺材,并让《Jet》杂志刊登自己儿子葬礼照片,她想让世界各地的人们知道她儿子的遭遇。随后成千上万的人看到了埃米特的照片,这也使得埃米特案成为了对南方黑人司法不公的象征。乌比饰演埃米特的祖母阿尔玛·卡尔坦。


影片参数
蒂尔4k.Till.2022.2160p.WEB-DL.x265.10bit.SDR.DD5.1-电影信息
Video
ID : 1
Format : HEVC
Format/Info : High Efficiency Video Coding
Format profile : Main 10@L5@High
Codec ID : V_MPEGH/ISO/HEVC
Duration : 2 h 10 min
Bit rate : 11.8 Mb/s
Width : 3 832 pixels
Height : 1 600 pixels
Display aspect ratio : 2.40:1
Frame rate mode : Constant
Frame rate : 23.976 FPS
Color space : YUV
Chroma subsampling : 4:2:0
Bit depth : 10 bits
Bits/(Pixel*Frame) : 0.080
Stream size : 10.8 GiB (97%)
Default : Yes
Forced : No
Color range : Limited
Color primaries : BT.709
Transfer characteristics : BT.709
Matrix coefficients : BT.709


Audio
ID : 2
Format : AC-3
Format/Info : Audio Coding 3
Commercial name : Dolby Digital
Codec ID : A_AC3
Duration : 2 h 10 min
Bit rate mode : Constant
Bit rate : 384 kb/s
Channel(s) : 6 channels
Channel layout : L R C LFE Ls Rs
Sampling rate : 48.0 kHz
Frame rate : 31.250 FPS (1536 SPF)
Compression mode : Lossy
Stream size : 359 MiB (3%)
Language : English
Service kind : Complete Main
Default : Yes
Forced : No


Text
ID : 3
Format : UTF-8
Codec ID : S_TEXT/UTF8
Codec ID/Info : UTF-8 Plain Text
Duration : 1 h 56 min
Bit rate : 51 b/s
Frame rate : 0.211 FPS
Count of elements : 1483
Stream size : 44.4 KiB (0%)
Language : English
Default : Yes
Forced : No


蓝光高清网提示您 点击下方附件名称 即可开始下载


蒂尔4k.Till.2022.2160p.WEB-DL.x265.10bit.SDR.DD5.1-电影下载

蒂尔4k.Till.2022.2160p.WEB-DL.x265.10bit.SDR.DD5.1【11.15 GB】

蒂尔4k.Till.2022.2160p.WEB-DL.x265.10bit.SDR.DD5.1-NOGRP.torrent ( 14.56 KB )



加入蓝光高清网VIP会员  无限制下载本站所有资源---点这里

资源下载、资源播放、字幕使用、无法下载等常见问题---点这里
回复

使用道具 举报

全部回复1 显示全部楼层
dongshouba手机认证 发表于 3 天前 | 显示全部楼层
感谢分享
回复

使用道具 举报

发表回复

您需要登录后才可以回帖 登录 | 立即注册

本版积分规则

开通会员 帮助中心 返回顶部 返回列表