本站已运行

蓝光高清网

搜索
开启左侧

欢迎来到欲望舞团(台) / 移民 / 侨民 / Immigrant/欢迎来到切彭代尔斯4k.Welcome.to.Chippendales.S01E01.2160p.HULU.WEB-DL.x265.10bit.HDR10Plus.DDP5.1-美剧下载

蓝鸟 发表于 4 天前 | 显示全部楼层 |阅读模式
欢迎来到切彭代尔斯 豆瓣评分: 无评分

状态:第一季(更新至第2集 共8集)
上映时间:2022-11-22
类型:剧情 传记 
地区:美国
导演:罗伯特·D·西格尔 / 拉吉夫·约瑟夫
主演:库梅尔·南贾尼 / 丹·史蒂文斯 / 朱丽叶特·刘易斯 / 穆雷·巴特利特 / 安德鲁·兰内斯
画质标准:4K(3840x2160) 封装音轨:5.1声道 音轨编码:其他DD
剧情简介
  Hulu将推出聚焦“世界第一脱衣舞男团”Chippendales的历史和背后丑闻的新剧《侨民》(Immigrant),库梅尔·南贾尼(《硅谷》《永恒族》)主演并担任执行制作人,Robert Siegel(《大创业家》)编剧,已直接获预订整季8集。
  本剧被描绘为一个疯狂、有黑暗喜剧色彩的罪案故事,南贾尼饰演创办了著名男性脱衣舞秀Chippendales的印度裔美国籍商人Somen "Steve" Banerjee。在1980年代,Chippendales在纽约走红并成为物欲横流的文化现象,而随后出现了多名秀场制作人、舞者和编舞被谋杀的血案,最终,Banerjee供认了纵火、诈骗和被雇佣杀人的罪名....
影片参数


欢迎来到欲望舞团(台) / 移民 / 侨民 / Immigrant/欢迎来到切彭代尔斯4k.Welcome.to.Chippendales.S01E01.2160p.HULU.WEB-DL.x265.10bit.HDR10Plus.DDP5.1-美剧信息
Video
ID : 1
Format : HEVC
Format/Info : High Efficiency Video Coding
Format profile : Main 10@L5.1@Main
HDR format : Dolby Vision, Version 1.0, dvhe.08.06, BL+RPU, HDR10 compatible / SMPTE ST 2094 App 4, Version 1, HDR10+ Profile B compatible
Codec ID : V_MPEGH/ISO/HEVC
Duration : 45 min 47 s
Bit rate : 15.5 Mb/s
Width : 3 840 pixels
Height : 2 160 pixels
Display aspect ratio : 16:9
Frame rate mode : Constant
Frame rate : 23.976 (24000/1001) FPS
Color space : YUV
Chroma subsampling : 4:2:0 (Type 2)
Bit depth : 10 bits
Bits/(Pixel*Frame) : 0.078
Stream size : 4.95 GiB (98%)
Language : English
Default : Yes
Forced : No
Color range : Limited
Color primaries : BT.2020
Transfer characteristics : PQ
Matrix coefficients : BT.2020 non-constant
Mastering display color primaries : Display P3
Mastering display luminance : min: 0.0001 cd/m2, max: 1000 cd/m2
Maximum Content Light Level : 464 cd/m2
Maximum Frame-Average Light Level : 198 cd/m2


Audio
ID : 2
Format : E-AC-3
Format/Info : Enhanced AC-3
Commercial name : Dolby Digital Plus
Codec ID : A_EAC3
Duration : 45 min 47 s
Bit rate mode : Constant
Bit rate : 256 kb/s
Channel(s) : 6 channels
Channel layout : L R C LFE Ls Rs
Sampling rate : 48.0 kHz
Frame rate : 31.250 FPS (1536 SPF)
Compression mode : Lossy
Stream size : 83.9 MiB (2%)
Language : English
Service kind : Complete Main
Default : Yes
Forced : No


Text #1
ID : 3
Format : UTF-8
Codec ID : S_TEXT/UTF8
Codec ID/Info : UTF-8 Plain Text
Duration : 45 min 34 s
Bit rate : 90 b/s
Frame rate : 0.336 FPS
Count of elements : 920
Stream size : 30.4 KiB (0%)
Title : English
Language : English
Default : No
Forced : No


Text #2
ID : 4
Format : UTF-8
Codec ID : S_TEXT/UTF8
Codec ID/Info : UTF-8 Plain Text
Duration : 44 min 25 s
Bit rate : 86 b/s
Frame rate : 0.338 FPS
Count of elements : 901
Stream size : 28.2 KiB (0%)
Title : Spanish
Language : Spanish
Default : No
Forced : No


蓝光高清网提示您 点击下方附件名称 即可开始下载


多版本下载时请注意区分


欢迎来到欲望舞团(台) / 移民 / 侨民 / Immigrant/欢迎来到切彭代尔斯4k.Welcome.to.Chippendales.S01E01.2160p.HULU.WEB-DL.x265.10bit.HDR10Plus.DDP5.1-美剧下载

第1集
欢迎来到切彭代尔斯4k.Welcome.to.Chippendales.S01E01.2160p.HULU.WEB-DL.x265.10bit.HDR10Plus.DDP5.1【5.03 GB】

欢迎来到切彭代尔斯4k.Welcome.to.Chippendales.S01E01.2160p.HULU.WEB-DL.x265.10bit.HDR10Plus.DDP5.1-TRUFFLE[rartv].torrent ( 13.34 KB )



欢迎来到切彭代尔斯4k.Welcome.to.Chippendales.S01E01.2160p.WEB.h265【5.03 GB】

欢迎来到切彭代尔斯4k.Welcome.to.Chippendales.S01E01.2160p.WEB.h265-TRUFFLE[rartv].torrent ( 13.33 KB )



第2集
欢迎来到切彭代尔斯4k.Welcome.to.Chippendales.S01E02.2160p.WEB.h265【5.17  GB】

欢迎来到切彭代尔斯4k.Welcome.to.Chippendales.S01E02.2160p.WEB.h265-TRUFFLE[rartv].torrent ( 13.68 KB )



欢迎来到切彭代尔斯4k.Welcome.to.Chippendales.S01E02.2160p.HULU.WEB-DL.x265.10bit.HDR10Plus.DDP5.1【5.18 GB】

欢迎来到切彭代尔斯4k.Welcome.to.Chippendales.S01E02.2160p.HULU.WEB-DL.x265.10bit.HDR10Plus.DDP5.1-TRUFFLE[rartv].torrent ( 13.72 KB )


加入蓝光高清网VIP会员  无限制下载本站所有资源---点这里

资源下载、资源播放、字幕使用、无法下载等常见问题---点这里
回复

使用道具 举报

全部回复0 显示全部楼层

发表回复

您需要登录后才可以回帖 登录 | 立即注册

本版积分规则

开通会员 帮助中心 返回顶部 返回列表