本站已运行

蓝光高清网

搜索
开启左侧

[剧情] 14天,12夜 14.Days.12.Nights.2019.FRENCH.1080p.BluRay.x264.DD5.1-MrA 8.44GB

蓝鸟 发表于 3 天前 | 显示全部楼层 |阅读模式


标  题 14天,12夜
译  名 14 Days /  12 Nights
片  名 14 jours, 12 nuits
年  代 2018
产  地 加拿大
类  别 剧情
语  言 法语
上映日期 2019-12-12(哥伦比亚) / 2020-03-06(加拿大)
IMDb评分 6.3/10 (326人评价)
片  长 99分钟
导  演 让-菲利普·杜瓦尔 Jean-Philippe Duval
演  员 安娜·多尔瓦尔 Anne Dorval
       弗朗索瓦·帕皮诺 François Papineau
       伊夫·贝朗热 Yves Bélanger

简  介

一场意外,让伊莎贝尔踏上前往越南的远途旅程。她回到女儿最初的故乡,绝望地企图捕捉逝去之人的余温。兜兜转转间她找到了养女的生母,两人在旅程中相知相熟。未想离别在即,伤痛与秘密却猝不及防地暴露在阳光下。影片用阒然清冷的色调与简明克制的对话,讲述动人的寻亲故事,探讨了社会历史背景中,血缘、家庭与文化间千丝万缕的连结。


影片参数
  1. Video
  2. ID                                       : 1
  3. Format                                   : AVC
  4. Format/Info                              : Advanced Video Codec
  5. Format profile                           : [email protected]
  6. Format settings                          : CABAC / 5 Ref Frames
  7. Format settings, CABAC                   : Yes
  8. Format settings, Reference frames        : 5 frames
  9. Codec ID                                 : V_MPEG4/ISO/AVC
  10. Duration                                 : 1 h 39 min
  11. Bit rate                                 : 11.7 Mb/s
  12. Width                                    : 1 920 pixels
  13. Height                                   : 804 pixels
  14. Display aspect ratio                     : 2.40:1
  15. Frame rate mode                          : Constant
  16. Frame rate                               : 24.000 FPS
  17. Color space                              : YUV
  18. Chroma subsampling                       : 4:2:0
  19. Bit depth                                : 8 bits
  20. Scan type                                : Progressive
  21. Bits/(Pixel*Frame)                       : 0.315
  22. Stream size                              : 8.12 GiB (96%)
  23. Writing library                          : x264 core 161 r3048+53M 0749c36 t_mod_New [(8 & 10)[email protected] X86_64]
  24. Encoding settings                        : cabac=1 / ref=5 / deblock=1:-3:-3 / analyse=0x3:0x133 / me=umh / subme=10 / psy=1 / fade_compensate=0.00 / psy_rd=1.00:0.00 / mixed_ref=1 / me_range=32 / chroma_me=1 / trellis=2 / 8x8dct=1 / cqm=0 / deadzone=21,11 / fast_pskip=0 / chroma_qp_offset=-2 / threads=18 / lookahead_threads=4 / sliced_threads=0 / nr=0 / decimate=0 / interlaced=0 / bluray_compat=0 / constrained_intra=0 / fgo=0 / bframes=11 / b_pyramid=2 / b_adapt=2 / b_bias=0 / direct=3 / weightb=1 / open_gop=0 / weightp=2 / keyint=250 / keyint_min=24 / scenecut=40 / intra_refresh=0 / rc_lookahead=60 / rc=crf / mbtree=0 / crf=16.0000 / qcomp=0.65 / qpmin=0:0:0 / qpmax=69:69:69 / qpstep=4 / vbv_maxrate=62500 / vbv_bufsize=78125 / crf_max=0.0 / nal_hrd=none / filler=0 / ip_ratio=1.30 / pb_ratio=1.20 / aq=3:0.70 / aq-sensitivity=10.00 / aq-factor=1.00:1.00:1.00 / aq2=0 / aq3=0
  25. Language                                 : English
  26. Default                                  : Yes
  27. Forced                                   : No
  28. Color range                              : Limited
  29. Color primaries                          : BT.709
  30. Matrix coefficients                      : BT.709
  31. Audio
  32. ID                                       : 2
  33. Format                                   : AC-3
  34. Format/Info                              : Audio Coding 3
  35. Commercial name                          : Dolby Digital
  36. Codec ID                                 : A_AC3
  37. Duration                                 : 1 h 39 min
  38. Bit rate mode                            : Constant
  39. Bit rate                                 : 448 kb/s
  40. Channel(s)                               : 6 channels
  41. Channel layout                           : L R C LFE Ls Rs
  42. Sampling rate                            : 48.0 kHz
  43. Frame rate                               : 31.250 FPS (1536 SPF)
  44. Compression mode                         : Lossy
  45. Stream size                              : 319 MiB (4%)
  46. Title                                    : French
  47. Language                                 : French
  48. Service kind                             : Complete Main
  49. Default                                  : Yes
  50. Forced                                   : No
  51. Text #1
  52. ID                                       : 3
  53. Format                                   : UTF-8
  54. Codec ID                                 : S_TEXT/UTF8
  55. Codec ID/Info                            : UTF-8 Plain Text
  56. Duration                                 : 1 h 38 min
  57. Bit rate                                 : 13 b/s
  58. Frame rate                               : 0.053 FPS
  59. Count of elements                        : 315
  60. Stream size                              : 9.55 KiB (0%)
  61. Title                                    : English
  62. Language                                 : English
  63. Default                                  : No
  64. Forced                                   : No
  65. Text #2
  66. ID                                       : 4
  67. Format                                   : PGS
  68. Muxing mode                              : zlib
  69. Codec ID                                 : S_HDMV/PGS
  70. Codec ID/Info                            : Picture based subtitle format used on BDs/HD-DVDs
  71. Duration                                 : 1 h 39 min
  72. Bit rate                                 : 6 761 b/s
  73. Frame rate                               : 0.133 FPS
  74. Count of elements                        : 793
  75. Stream size                              : 4.82 MiB (0%)
  76. Title                                    : Spanish (SDH)
  77. Language                                 : Spanish
  78. Default                                  : No
  79. Forced                                   : No
  80. Text #3
  81. ID                                       : 5
  82. Format                                   : PGS
  83. Muxing mode                              : zlib
  84. Codec ID                                 : S_HDMV/PGS
  85. Codec ID/Info                            : Picture based subtitle format used on BDs/HD-DVDs
  86. Duration                                 : 1 h 39 min
  87. Bit rate                                 : 2 062 b/s
  88. Frame rate                               : 0.038 FPS
  89. Count of elements                        : 227
  90. Stream size                              : 1.47 MiB (0%)
  91. Title                                    : Spanish (SDH)
  92. Language                                 : Spanish
  93. Default                                  : No
  94. Forced                                   : No
  95. Menu
  96. 00:00:00.000                             : :Chapter 01
  97. 00:07:43.333                             : :Chapter 02
  98. 00:17:07.208                             : :Chapter 03
  99. 00:23:51.000                             : :Chapter 04
  100. 00:30:20.000                             : :Chapter 05
  101. 00:38:17.792                             : :Chapter 06
  102. 00:50:56.333                             : :Chapter 07
  103. 00:58:38.667                             : :Chapter 08
  104. 01:11:22.750                             : :Chapter 09
  105. 01:26:13.458                             : :Chapter 10
复制代码



蓝光高清网提示您 点击下方附件即可下载

14天,12夜 14.Days.12.Nights.2019.FRENCH.1080p.BluRay.x264.DD5.1-MrA 8.44GB

14.Days.12.Nights.2019.FRENCH.1080p.BluRay.x264.DD5.1-MrA.torrent ( 21.74 KB )

加入蓝光高清网VIP会员  无限制下载本站所有资源---点这里

资源下载、资源播放、字幕使用、无法下载等常见问题---点这里
回复

使用道具 举报

全部回复0 显示全部楼层

发表回复

您需要登录后才可以回帖 登录 | 立即注册

本版积分规则

开通会员 帮助中心 返回顶部 返回列表