本站已运行

蓝光高清网

搜索
开启左侧

[剧情] 罪犯艾米丽 Emily.the.Criminal.2022.1080p.BluRay.x264.DTS-FGT 8.80GB

蓝鸟 发表于 2022-11-26 09:07:43 | 显示全部楼层 |阅读模式


标  题 罪犯艾米丽
片  名 Emily the Criminal
年  代 2022
产  地 美国
类  别 剧情 / 惊悚 / 犯罪
语  言 英语
上映日期 2022-01-24(圣丹斯电影节) / 2022-06-08(澳大利亚悉尼电影节) / 2022-08-12(美国)
IMDb评分 7.1/10 (1519人评价)
片  长 93分钟
演  员 奥布瑞·普拉扎 Aubrey Plaza
       西奥·罗西 Theo Rossi
       乔纳森阿维多瑞 Jonathan Avigdori
       贝尔纳多·巴迪罗 Bernardo Badillo
       吉娜·格申 Gina Gershon
       梅歌林·艾奇坤沃克 Megalyn Echikunwoke
       约翰·比灵斯列 John Billingsley
       约翰·波西 John Posey
       克雷格·斯塔克 Craig Stark
       罗曼·米蒂齐扬 Roman Mitichyan
       杰克·托帕利安 Jack Topalian
       维克托·沃尔夫 Victor Wolf
       托马斯·派斯 Tomas Pais
       Janice Sonia Lee Janice Sonia Lee
       卫斯理·韩 Wesley Han
       內森·哈本 Nathan Halpern

简  介

Follows Emily, who gets involved in a credit card scam after being saddled with debt, what pulls her into the criminal and deadly underworld of Los Angeles.


影片参数
  1. Video
  2. ID                                       : 1
  3. Format                                   : AVC
  4. Format/Info                              : Advanced Video Codec
  5. Format profile                           : [email protected]
  6. Format settings                          : CABAC / 4 Ref Frames
  7. Format settings, CABAC                   : Yes
  8. Format settings, Reference frames        : 4 frames
  9. Codec ID                                 : V_MPEG4/ISO/AVC
  10. Duration                                 : 1 h 36 min
  11. Bit rate                                 : 11.5 Mb/s
  12. Width                                    : 1 920 pixels
  13. Height                                   : 804 pixels
  14. Display aspect ratio                     : 2.40:1
  15. Frame rate mode                          : Constant
  16. Frame rate                               : 23.976 (24000/1001/189150) FPS
  17. Color space                              : YUV
  18. Chroma subsampling                       : 4:2:0
  19. Bit depth                                : 8 bits
  20. Scan type                                : Progressive
  21. Bits/(Pixel*Frame)                       : 0.311
  22. Stream size                              : 7.78 GiB (88%)
  23. Writing library                          : x264 core 148 r2795M aaa9aa8
  24. Encoding settings                        : cabac=1 / ref=4 / deblock=1:-2:-2 / analyse=0x3:0x113 / me=umh / subme=9 / psy=1 / psy_rd=1.00:0.15 / mixed_ref=1 / me_range=16 / chroma_me=1 / trellis=2 / 8x8dct=1 / cqm=0 / deadzone=21,11 / fast_pskip=1 / chroma_qp_offset=-3 / threads=72 / lookahead_threads=3 / sliced_threads=0 / nr=0 / decimate=1 / interlaced=0 / bluray_compat=0 / constrained_intra=0 / bframes=3 / b_pyramid=2 / b_adapt=1 / b_bias=0 / direct=3 / weightb=1 / open_gop=0 / weightp=2 / keyint=250 / keyint_min=25 / scenecut=40 / intra_refresh=0 / rc_lookahead=50 / rc=2pass / mbtree=1 / bitrate=11500 / ratetol=1.0 / qcomp=0.60 / qpmin=0 / qpmax=69 / qpstep=4 / cplxblur=20.0 / qblur=0.5 / vbv_maxrate=31250 / vbv_bufsize=31250 / nal_hrd=none / filler=0 / ip_ratio=1.40 / aq=1:1.00
  25. Language                                 : English
  26. Default                                  : Yes
  27. Forced                                   : No
  28. Audio
  29. ID                                       : 2
  30. Format                                   : DTS
  31. Format/Info                              : Digital Theater Systems
  32. Codec ID                                 : A_DTS
  33. Duration                                 : 1 h 36 min
  34. Bit rate mode                            : Constant
  35. Bit rate                                 : 1 509 kb/s
  36. Channel(s)                               : 6 channels
  37. Channel layout                           : C L R Ls Rs LFE
  38. Sampling rate                            : 48.0 kHz
  39. Frame rate                               : 93.750 FPS (512 SPF)
  40. Bit depth                                : 24 bits
  41. Compression mode                         : Lossy
  42. Stream size                              : 1.02 GiB (12%)
  43. Language                                 : English
  44. Default                                  : Yes
  45. Forced                                   : No
  46. Text #1
  47. ID                                       : 3
  48. Format                                   : UTF-8
  49. Codec ID                                 : S_TEXT/UTF8
  50. Codec ID/Info                            : UTF-8 Plain Text
  51. Duration                                 : 1 h 30 min
  52. Bit rate                                 : 45 b/s
  53. Frame rate                               : 0.208 FPS
  54. Count of elements                        : 1127
  55. Stream size                              : 30.3 KiB (0%)
  56. Language                                 : English
  57. Default                                  : Yes
  58. Forced                                   : No
  59. Text #2
  60. ID                                       : 4
  61. Format                                   : UTF-8
  62. Codec ID                                 : S_TEXT/UTF8
  63. Codec ID/Info                            : UTF-8 Plain Text
  64. Duration                                 : 1 h 35 min
  65. Bit rate                                 : 53 b/s
  66. Frame rate                               : 0.239 FPS
  67. Count of elements                        : 1372
  68. Stream size                              : 37.3 KiB (0%)
  69. Title                                    : SDH
  70. Language                                 : English
  71. Default                                  : No
  72. Forced                                   : No
  73. Menu
  74. 00:00:00.000                             : en:Chapter 01
  75. 00:11:04.330                             : en:Chapter 02
  76. 00:22:02.904                             : en:Chapter 03
  77. 00:32:56.182                             : en:Chapter 04
  78. 00:42:10.569                             : en:Chapter 05
  79. 00:51:05.437                             : en:Chapter 06
  80. 01:00:19.699                             : en:Chapter 07
  81. 01:11:58.188                             : en:Chapter 08
  82. 01:20:01.797                             : en:Chapter 09
  83. 01:27:49.430                             : en:Chapter 10
  84. 01:36:50.888                             : en:Chapter 11
复制代码



蓝光高清网提示您 点击下方附件即可下载

罪犯艾米丽 Emily.the.Criminal.2022.1080p.BluRay.x264.DTS-FGT 8.80GB

Emily.the.Criminal.2022.1080p.BluRay.x264.DTS-FGT.torrent ( 22.62 KB )

加入蓝光高清网VIP会员  无限制下载本站所有资源---点这里

资源下载、资源播放、字幕使用、无法下载等常见问题---点这里
回复

使用道具 举报

全部回复0 显示全部楼层

发表回复

您需要登录后才可以回帖 登录 | 立即注册

本版积分规则