本站已运行

蓝光高清网

搜索
开启左侧

[传记纪录片] 天大逃犯:汽车大亨戈恩奇案4k.Fugitive.The.Curious.Case.of.Carlos.Ghosn.2022.2160p.NF.WEB-DL.x265.10bit.HDR.DDP5.1-电影下载

蓝鸟 发表于 2023-1-5 16:07:25 | 显示全部楼层 |阅读模式

天大逃犯:汽车大亨戈恩奇案4k.Fugitive.The.Curious.Case.of.Carlos.Ghosn.2022.2160p.NF.WEB-DL.x265.10b ...

天大逃犯:汽车大亨戈恩奇案4k.Fugitive.The.Curious.Case.of.Carlos.Ghosn.2022.2160p.NF.WEB-DL.x265.10b ...




简       介


  这部真是纪录片聚焦卡洛斯·戈恩,讲述了他从商业大亨到身败名裂的传奇故事。

影片参数
天大逃犯:汽车大亨戈恩奇案4k.Fugitive.The.Curious.Case.of.Carlos.Ghosn.2022.2160p.NF.WEB-DL.x265.10bit.HDR.DDP5.1-电影信息
Video
ID : 1
Format : HEVC
Format/Info : High Efficiency Video Coding
Format profile : Main 10@L5@Main
HDR format : Dolby Vision, Version 1.0, dvhe.08.07, BL+RPU, HDR10 compatible / SMPTE ST 2086, HDR10 compatible
Codec ID : V_MPEGH/ISO/HEVC
Duration : 1 h 34 min
Bit rate : 10.7 Mb/s
Width : 3 840 pixels
Height : 2 160 pixels
Display aspect ratio : 16:9
Frame rate mode : Constant
Frame rate : 25.000 FPS
Color space : YUV
Chroma subsampling : 4:2:0 (Type 2)
Bit depth : 10 bits
Bits/(Pixel*Frame) : 0.052
Stream size : 7.06 GiB (94%)
Language : English
Default : Yes
Forced : No
Color range : Limited
Color primaries : BT.2020
Transfer characteristics : PQ
Matrix coefficients : BT.2020 non-constant
Mastering display color primaries : Display P3
Mastering display luminance : min: 0.0001 cd/m2, max: 1000 cd/m2
Maximum Content Light Level : 1046 cd/m2
Maximum Frame-Average Light Level : 147 cd/m2


Audio
ID : 2
Format : E-AC-3
Format/Info : Enhanced AC-3
Commercial name : Dolby Digital Plus
Codec ID : A_EAC3
Duration : 1 h 35 min
Bit rate mode : Constant
Bit rate : 640 kb/s
Channel(s) : 6 channels
Channel layout : L R C LFE Ls Rs
Sampling rate : 48.0 kHz
Frame rate : 31.250 FPS (1536 SPF)
Compression mode : Lossy
Stream size : 435 MiB (6%)
Language : English
Service kind : Complete Main
Default : Yes
Forced : No


Text #32
ID : 34
Format : UTF-8
Codec ID : S_TEXT/UTF8
Codec ID/Info : UTF-8 Plain Text
Duration : 1 h 33 min
Bit rate : 116 b/s
Frame rate : 0.218 FPS
Count of elements : 1230
Stream size : 80.4 KiB (0%)
Language : Ukrainian
Default : No
Forced : No


Text #33
ID : 35
Format : UTF-8
Codec ID : S_TEXT/UTF8
Codec ID/Info : UTF-8 Plain Text
Duration : 1 h 33 min
Bit rate : 104 b/s
Frame rate : 0.213 FPS
Count of elements : 1200
Stream size : 71.7 KiB (0%)
Language : Vietnamese
Default : No
Forced : No


Text #34
ID : 36
Format : UTF-8
Codec ID : S_TEXT/UTF8
Codec ID/Info : UTF-8 Plain Text
Duration : 1 h 33 min
Bit rate : 72 b/s
Frame rate : 0.226 FPS
Count of elements : 1273
Stream size : 49.6 KiB (0%)
Title : Simplified
Language : Chinese (Simplied)
Default : No
Forced : No


Text #35
ID : 37
Format : UTF-8
Codec ID : S_TEXT/UTF8
Codec ID/Info : UTF-8 Plain Text
Duration : 1 h 33 min
Bit rate : 63 b/s
Frame rate : 0.254 FPS
Count of elements : 1430
Stream size : 44.0 KiB (0%)
Title : Traditional
Language : Chinese (Traditional)
Default : No
Forced : No


Menu
01:32:11.000 : en:End Credits

蓝光高清网提示您 点击下方附件名称 即可开始下载

天大逃犯:汽车大亨戈恩奇案4k.Fugitive.The.Curious.Case.of.Carlos.Ghosn.2022.2160p.NF.WEB-DL.x265.10bit.HDR.DDP5.1-电影下载

天大逃犯:汽车大亨戈恩奇案4k.Fugitive.The.Curious.Case.of.Carlos.Ghosn.2022.2160p.NF.WEB-DL.x265.10bit.HDR.DDP5.1-简繁中字【7.49 GB】

Fugitive.The.Curious.Case.of.Carlos.Ghosn.2022.2160p.NF.WEB-DL.x265.10bit.HDR.DD.torrent ( 19.43 KB )



来源: 天大逃犯:汽车大亨戈恩奇案4k.Fugitive.The.Curious.Case.of.Carlos.Ghosn.2022.2160p.NF.WEB-DL.x265.10bit.HDR.DDP5.1-电影下载
加入蓝光高清网VIP会员  无限制下载本站所有资源---点这里

资源下载、资源播放、字幕使用、无法下载等常见问题---点这里
回复

使用道具 举报

全部回复0 显示全部楼层

发表回复

您需要登录后才可以回帖 登录 | 立即注册

本版积分规则