本站已运行

蓝光高清网

搜索
开启左侧

狂飙 The.Knockout.S01E04.2023.2160p.WEB-DL.H265.DDP5.1 4k国产电视剧下载

 
蓝鸟 发表于 2023-1-16 20:09:09 | 显示全部楼层 |阅读模式
狂飙 豆瓣评分: 8.3分

状态:第一季(完结)
上映时间:2023-01-14
类型:剧情 犯罪 
地区:大陆
导演:徐纪周
主演:张译 / 张颂文 / 李一桐 / 张志坚 / 吴刚
画质标准:4K(3840x2160) 封装音轨:5.1声道 音轨编码:其他DD
剧情简介
  京海市一线刑警安欣(张译 饰),在与黑恶势力的斗争中,不断遭到保护伞的打击,始终无法将犯罪分子绳之以法。全国政法队伍教育整顿工作开展后,临江省派出指导组入驻京海,联合公检法司各部门,清除了政法队伍内部的腐败分子,粉碎了黑恶势力的保护伞,一举铲除了盘踞京海多年的强盛集团....
本帖最后由 蓝鸟 于 2023-2-3 10:27 编辑
Format                         : Matroska
Format version                 : Version 4
File size                      : 1.68 GiB
Duration                       : 45 min 44 s
Overall bit rate               : 5 270 kb/s
Encoded date                   : UTC 2023-01-14 13:18:29
Writing application            : mkvmerge v72.0.0 ('Minuano (Six-eight)') 64-bit
Writing library                : libebml v1.4.4 + libmatroska v1.7.1

Video
ID                             : 1
Format                         : HEVC
Format/Info                    : High Efficiency Video Coding
Format profile                 : Main@L5@Main
Codec ID                       : V_MPEGH/ISO/HEVC
Duration                       : 45 min 44 s
Bit rate                       : 4 982 kb/s
Width                          : 3 840 pixels
Height                         : 2 160 pixels
Display aspect ratio           : 16:9
Frame rate mode                : Constant
Frame rate                     : 25.000 FPS
Color space                    : YUV
Chroma subsampling             : 4:2:0
Bit depth                      : 8 bits
Bits/(Pixel*Frame)             : 0.024
Stream size                    : 1.59 GiB (95%)
Language                       : Chinese
Default                        : Yes
Forced                         : No

Audio #1
ID                             : 2
Format                         : E-AC-3
Format/Info                    : Enhanced AC-3
Commercial name                : Dolby Digital Plus
Codec ID                       : A_EAC3
Duration                       : 45 min 44 s
Bit rate mode                  : Constant
Bit rate                       : 96.0 kb/s
Channel(s)                     : 2 channels
Channel layout                 : L R
Sampling rate                  : 48.0 kHz
Frame rate                     : 31.250 FPS (1536 SPF)
Compression mode               : Lossy
Stream size                    : 31.4 MiB (2%)
Title                          : Mandarin [DDP5.1]
Language                       : Chinese
Service kind                   : Complete Main
Default                        : Yes
Forced                         : No

Audio #2
ID                             : 3
Format                         : AAC LC
Format/Info                    : Advanced Audio Codec Low Complexity
Codec ID                       : A_AAC-2
Duration                       : 45 min 44 s
Bit rate                       : 192 kb/s
Channel(s)                     : 2 channels
Channel layout                 : L R
Sampling rate                  : 44.1 kHz
Frame rate                     : 43.066 FPS (1024 SPF)
Compression mode               : Lossy
Stream size                    : 62.2 MiB (4%)
Title                          : Mandarin [AAC2.0]
Language                       : Chinese
Default                        : No
Forced                         : No

蓝光高清网提示您 点击下方附件名称 即可开始下载

狂飙 The.Knockout.S01E04.2023.2160p.WEB-DL.H265.DDP5.1 4k国产电视剧下载

狂飙 4K 2160p 高码版.txt ( 214 Bytes )



加入蓝光高清网VIP会员  无限制下载本站所有资源---点这里

资源下载、资源播放、字幕使用、无法下载等常见问题---点这里
回复

使用道具 举报

全部回复111 显示全部楼层
qwtwsd 发表于 2023-1-16 22:54:56 | 显示全部楼层
好~~~~~~~~~~~~~~
回复

使用道具 举报

buddie手机认证 发表于 2023-1-17 05:52:19 来自手机 | 显示全部楼层
看看是什么意思
回复 支持 反对

使用道具 举报

malue2kkk手机认证 发表于 2023-1-17 09:06:13 | 显示全部楼层
演员阵容强大,父母很想看。
回复 支持 反对

使用道具 举报

caobo手机认证 发表于 2023-1-17 09:35:41 | 显示全部楼层
坎坎坷坷扩扩扩卡班女
回复 支持 反对

使用道具 举报

17660904395手机认证 发表于 2023-1-17 11:08:53 | 显示全部楼层
狂飙58457157
回复 支持 反对

使用道具 举报

fdc1801手机认证 发表于 2023-1-17 11:22:24 | 显示全部楼层
谢谢楼主分享
回复 支持 反对

使用道具 举报

qkqkqk手机认证 发表于 2023-1-17 13:08:05 | 显示全部楼层
aaaaaaaaaa
回复 支持 反对

使用道具 举报

YXZ手机认证 发表于 2023-1-17 13:52:34 | 显示全部楼层
谢谢 大佬们的分享
回复 支持 反对

使用道具 举报

seith1986手机认证 发表于 2023-1-17 14:44:09 | 显示全部楼层
谢谢楼主,好人一生平安
回复 支持 反对

使用道具 举报

发表回复

您需要登录后才可以回帖 登录 | 立即注册

本版积分规则