本站已运行

蓝光高清网

搜索
开启左侧

最后生还者 The.Last.of.Us.S01.2160p.WEB.H265-GGWP[rartv]-[rarbg.to]-4k美剧下载

蓝鸟 发表于 2023-1-16 20:16:54 | 显示全部楼层 |阅读模式
最后生还者 豆瓣评分: 9.3分

状态:第一季(更新至第2集 共9集)
上映时间:2023-01-15
类型:动作 剧情 惊悚 恐怖 科幻 冒险 
地区:美国
导演:康捷米尔·巴拉戈夫 / 亚斯米拉·日巴尼奇 / 阿里·阿巴西 / 彼得·霍尔 / 杰里米·韦布 / 丽萨·约翰逊
主演:佩德罗·帕斯卡 / 贝拉·拉姆齐 / 加布里埃尔·鲁纳 / 安娜·托芙 / 妮可·帕克
画质标准:4K(3840x2160) 封装音轨:5.1声道 音轨编码:其他DD
剧情简介
  《最后生还者》由“顽皮狗”(Naughty Dog)游戏工作室历时两年开发,2013年六月发布。整部游戏设定在一个病毒肆虐之后的美国,被病毒感染的人都变成了可怕的怪物,游戏主角是一个个性冷漠的走私贩大叔乔尔(Joel)和一个勇敢早熟的14岁小女孩艾莉(Ellie),乔尔为了换回武器答应将小女孩儿艾莉送到指定地点,由此开始了两人穿越美国的漫漫旅程....
本帖最后由 蓝鸟 于 2023-1-29 21:54 编辑
Format                         : Matroska
Format version                 : Version 4
File size                      : 10.5 GiB
Duration                       : 1 h 20 min
Overall bit rate               : 18.6 Mb/s
Writing application            : mkvmerge v73.0.0 ('25 or 6 to 4') 64-bit
Writing library                : libebml v1.4.4 + libmatroska v1.7.1

Video
ID                             : 1
Format                         : HEVC
Format/Info                    : High Efficiency Video Coding
Format profile                 : Main 10@L5@Main
HDR format                     : Dolby Vision, Version 1.0, dvhe.08.06, BL+RPU, HDR10 compatible / SMPTE ST 2086, HDR10 compatible
Codec ID                       : V_MPEGH/ISO/HEVC
Duration                       : 1 h 20 min
Bit rate                       : 17.8 Mb/s
Width                          : 3 840 pixels
Height                         : 2 160 pixels
Display aspect ratio           : 16:9
Frame rate mode                : Constant
Frame rate                     : 23.976 (24000/1001) FPS
Color space                    : YUV
Chroma subsampling             : 4:2:0
Bit depth                      : 10 bits
Bits/(Pixel*Frame)             : 0.090
Stream size                    : 10.1 GiB (96%)
Language                       : English
Default                        : Yes
Forced                         : No
Color range                    : Limited
Color primaries                : BT.2020
Transfer characteristics       : PQ
Matrix coefficients            : BT.2020 non-constant
Mastering display color primar : BT.2020
Mastering display luminance    : min: 0.0001 cd/m2, max: 1000 cd/m2
Maximum Content Light Level    : 501 cd/m2
Maximum Frame-Average Light Le : 235 cd/m2

Audio
ID                             : 2
Format                         : E-AC-3 JOC
Format/Info                    : Enhanced AC-3 with Joint Object Coding
Commercial name                : Dolby Digital Plus with Dolby Atmos
Codec ID                       : A_EAC3
Duration                       : 1 h 20 min
Bit rate mode                  : Constant
Bit rate                       : 768 kb/s
Channel(s)                     : 6 channels
Channel layout                 : L R C LFE Ls Rs
Sampling rate                  : 48.0 kHz
Frame rate                     : 31.250 FPS (1536 SPF)
Compression mode               : Lossy
Stream size                    : 444 MiB (4%)
Language                       : English
Service kind                   : Complete Main
Default                        : Yes
Forced                         : No
Complexity index               : 16
Number of dynamic objects      : 15
Bed channel count              : 1 channel
Bed channel configuration      : LFE

Text #1
ID                             : 3
Format                         : UTF-8
Codec ID                       : S_TEXT/UTF8
Codec ID/Info                  : UTF-8 Plain Text
Duration                       : 1 h 18 min
Bit rate                       : 49 b/s
Count of elements              : 982
Stream size                    : 28.7 KiB (0%)
Language                       : English
Default                        : No
Forced                         : No

Text #2
ID                             : 4
Format                         : UTF-8
Codec ID                       : S_TEXT/UTF8
Codec ID/Info                  : UTF-8 Plain Text
Duration                       : 1 h 20 min
Bit rate                       : 60 b/s
Count of elements              : 1247
Stream size                    : 35.4 KiB (0%)
Title                          : SDH
Language                       : English
Default                        : No
Forced                         : No

Menu
00:03:27.207                   : en:Intro
00:04:34.275                   : en:Chapter 01
01:19:36.000                   : en:Credits

最后生还者 The.Last.of.Us.S01.2160p.WEB.H265-GGWP[rartv]-[rarbg.to]-4k美剧下载

第1集

阿里云盘下载:最后生还者 The.Last.of.Us.S01E01.Ep...-DL.DDP5.1.Atmos.mkv

The.Last.of.Us.S01E01.Ep...-DL.DDP5.1.Atmos.mkv .txt ( 238 Bytes )


最后生还者 The.Last.of.Us.S01E01.2160p.WEB.H265-GGWP 【8.01GB】

最后生还者 The.Last.of.Us.S01E01.2160p.WEB.H265-GGWP[rartv]-[rarbg.to].torrent ( 20.73 KB )



最后生还者 The.Last.of.Us.S01E01.HDR.2160p.WEB.H265-CAKES 【10.48】

最后生还者 The.Last.of.Us.S01E01.HDR.2160p.WEB.H265-CAKES[rartv]-[rarbg.to].torrent ( 13.83 KB )



最后生还者 The.Last.of.Us.S01E01.2160p.HMAX.WEB-DL.DDP5.1.Atmos.DV.MP4.x265-DVSUX 【10.48】

最后生还者 The.Last.of.Us.S01E01.2160p.HMAX.WEB-DL.DDP5.1.Atmos.DV.MP4.x265-DVSUX[rartv]-[rarbg.to].torrent ( 13.77 KB )



最后生还者 The.Last.of.Us.S01E01.2160p.HMAX.WEB-DL.x265.10bit.HDR.DDP5.1.Atmos-SMURF 【10.50】

最后生还者 The.Last.of.Us.S01E01.2160p.HMAX.WEB-DL.x265.10bit.HDR.DDP5.1.Atmos-SMURF[rartv]-[rarbg.to].torrent ( 13.81 KB )



第2集
阿里云盘下载:最后生还者 The.Last.of.Us.S01E02.Ep...-DL.DDP5.1.Atmos

The.Last.of.Us.S01E02.Ep...-DL.DDP5.1.Atmos.mkv .txt ( 229 Bytes )




百度网盘载:最后生还者 The.Last.of.Us.S01E02.Ep...-DL.DDP5.1.Atmos
链接: https://pan.baidu.com/s/1Gf9dDq81wwyoszmyVZfXEA?pwd=gyw9
提取码: gyw9

加入蓝光高清网VIP会员  无限制下载本站所有资源---点这里

资源下载、资源播放、字幕使用、无法下载等常见问题---点这里
回复

使用道具 举报

全部回复4 显示全部楼层
1080i 发表于 2023-1-18 01:22:17 | 显示全部楼层
T.h.a.n.k.s
回复

使用道具 举报

tianping7689手机认证 发表于 2023-1-18 15:52:33 | 显示全部楼层
字幕呢?
回复

使用道具 举报

ldartyh手机认证 发表于 2023-1-28 17:47:26 | 显示全部楼层
T.h.a.n.k.s
回复

使用道具 举报

wwxa手机认证 发表于 2023-1-31 12:24:25 | 显示全部楼层
多谢分享,期待第三集
回复 支持 反对

使用道具 举报

发表回复

您需要登录后才可以回帖 登录 | 立即注册

本版积分规则