本站已运行

蓝光高清网

搜索
开启左侧

[剧情] 帕勒莫枪击案.Palermo.Shooting.2008.1080p.BluRay.x264.DTS-ARCHFiLLER 15.64GB

蓝鸟 发表于 2023-1-19 23:14:35 | 显示全部楼层 |阅读模式

帕勒莫枪击案.Palermo.Shooting.2008.1080p.BluRay.x264.DTS-ARCHFiLLER 15.64GB

帕勒莫枪击案.Palermo.Shooting.2008.1080p.BluRay.x264.DTS-ARCHFiLLER 15.64GB


标  题 帕勒莫枪击案
片  名 Palermo Shooting
年  代 2008
产  地 德国 / 法国 / 意大利
类  别 剧情
语  言 英语 / 德语 / 意大利语
上映日期 2008-05-24
IMDb评分 6.1/10 (3054人评价)
豆瓣评分 7.2/10 (869人评价)
片  长 France: 124 分钟(Cannes Film Festival) / 108 分钟(re-cut version)
导  演 维姆·文德斯 Wim Wenders
编  剧 维姆·文德斯 Wim Wenders
       贝恩德·朗格 Bernd Lange
       约翰·凯林 John Kaylin
演  员 英嘉·布什 Inga Busch
       米拉·乔沃维奇 Milla Jovovich
        Olivia Asiedu-Poku
       Giovanni Sollima Giovanni Sollima
       卢·里德 Lou Reed
       Kuddel Kuddel
       阿克塞尔·西希洛夫斯基 Axel Sichrovsky
       Andi Andi
       塞巴斯蒂安·布隆贝格 Sebastian Blomberg
       彼得·林德伯格 Peter Lindbergh
       焦万娜·梅佐焦尔诺 Giovanna Mezzogiorno
       丹尼斯·霍珀 Dennis Hopper
       雅娜·帕拉斯克 Jana Pallaske
       坎皮诺 Campino
       沃尔夫冈·迈克尔 Wolfgang Michael
       安娜.沃尔斯 Anna Orso
       乌多·萨梅尔 Udo Samel
       Leoluca Orlando Leoluca Orlando
       Breiti Breiti

简  介

一位德国成功的摄影师,他的电话还是响个不停,应酬还是没完没了。为躲避这些,他来到意大利南部城市帕勒莫,但是在这里他遇到了一个神秘杀手的追逐,与此同时,他遇到了新的爱情和新的生活。

影片参数
  1. Video
  2. ID                                       : 1
  3. Format                                   : AVC
  4. Format/Info                              : Advanced Video Codec
  5. Format profile                           : [email protected]
  6. Format settings                          : CABAC / 4 Ref Frames
  7. Format settings, CABAC                   : Yes
  8. Format settings, Reference frames        : 4 frames
  9. Codec ID                                 : V_MPEG4/ISO/AVC
  10. Duration                                 : 1 h 48 min
  11. Bit rate                                 : 18.6 Mb/s
  12. Width                                    : 1 916 pixels
  13. Height                                   : 1 036 pixels
  14. Display aspect ratio                     : 1.85:1
  15. Frame rate mode                          : Constant
  16. Frame rate                               : 24.000 FPS
  17. Color space                              : YUV
  18. Chroma subsampling                       : 4:2:0
  19. Bit depth                                : 8 bits
  20. Scan type                                : Progressive
  21. Bits/(Pixel*Frame)                       : 0.391
  22. Stream size                              : 14.2 GiB (91%)
  23. Writing library                          : x264 core 164 r3103 941cae6
  24. Encoding settings                        : cabac=1 / ref=4 / deblock=1:-3:-3 / analyse=0x3:0x133 / me=umh / subme=9 / psy=1 / psy_rd=1.00:0.00 / mixed_ref=1 / me_range=32 / chroma_me=1 / trellis=2 / 8x8dct=1 / cqm=0 / deadzone=21,11 / fast_pskip=0 / chroma_qp_offset=-2 / threads=16 / lookahead_threads=2 / sliced_threads=0 / nr=0 / decimate=0 / interlaced=0 / bluray_compat=0 / constrained_intra=0 / bframes=8 / b_pyramid=2 / b_adapt=2 / b_bias=0 / direct=3 / weightb=1 / open_gop=0 / weightp=2 / keyint=250 / keyint_min=24 / scenecut=40 / intra_refresh=0 / rc_lookahead=60 / rc=crf / mbtree=1 / crf=17.0 / qcomp=0.60 / qpmin=0 / qpmax=69 / qpstep=4 / ip_ratio=1.40 / aq=3:0.88
  25. Default                                  : Yes
  26. Forced                                   : No
  27. Color range                              : Limited
  28. Color primaries                          : BT.709
  29. Transfer characteristics                 : BT.709
  30. Matrix coefficients                      : BT.709
  31. Audio
  32. ID                                       : 2
  33. Format                                   : DTS XLL
  34. Format/Info                              : Digital Theater Systems
  35. Commercial name                          : DTS-HD Master Audio
  36. Codec ID                                 : A_DTS
  37. Duration                                 : 1 h 48 min
  38. Bit rate mode                            : Variable
  39. Bit rate                                 : 1 944 kb/s
  40. Channel(s)                               : 6 channels
  41. Channel layout                           : C L R Ls Rs LFE
  42. Sampling rate                            : 48.0 kHz
  43. Frame rate                               : 93.750 FPS (512 SPF)
  44. Bit depth                                : 16 bits
  45. Compression mode                         : Lossless
  46. Stream size                              : 1.48 GiB (9%)
  47. Title                                    : English
  48. Language                                 : German
  49. Default                                  : No
  50. Forced                                   : No
  51. Text #1
  52. ID                                       : 3
  53. Format                                   : PGS
  54. Muxing mode                              : zlib
  55. Codec ID                                 : S_HDMV/PGS
  56. Codec ID/Info                            : Picture based subtitle format used on BDs/HD-DVDs
  57. Duration                                 : 1 h 39 min
  58. Bit rate                                 : 6 077 b/s
  59. Frame rate                               : 0.094 FPS
  60. Count of elements                        : 566
  61. Stream size                              : 4.35 MiB (0%)
  62. Title                                    : English [forced]
  63. Language                                 : English
  64. Default                                  : No
  65. Forced                                   : No
  66. Text #2
  67. ID                                       : 4
  68. Format                                   : UTF-8
  69. Codec ID                                 : S_TEXT/UTF8
  70. Codec ID/Info                            : UTF-8 Plain Text
  71. Duration                                 : 1 h 39 min
  72. Bit rate                                 : 10 b/s
  73. Frame rate                               : 0.047 FPS
  74. Count of elements                        : 283
  75. Stream size                              : 7.88 KiB (0%)
  76. Title                                    : English [forced]
  77. Language                                 : English
  78. Default                                  : Yes
  79. Forced                                   : Yes
  80. Menu
  81. 00:00:00.000                             : en:Chapter 01
  82. 00:10:53.417                             : en:Chapter 02
  83. 00:23:43.792                             : en:Chapter 03
  84. 00:34:55.792                             : en:Chapter 04
  85. 00:53:05.667                             : en:Chapter 05
  86. 01:02:08.042                             : en:Chapter 06
  87. 01:10:33.250                             : en:Chapter 07
  88. 01:18:58.500                             : en:Chapter 08
  89. 01:26:34.333                             : en:Chapter 09
  90. 01:33:16.875                             : en:Chapter 10
  91. 01:40:45.833                             : en:Chapter 11
  92. 01:43:01.792                             : en:Chapter 12
复制代码

帕勒莫枪击案.Palermo.Shooting.2008.1080p.BluRay.x264.DTS-ARCHFiLLER 15.64GB

帕勒莫枪击案.Palermo.Shooting.2008.1080p.BluRay.x264.DTS-ARCHFiLLER 15.64GB

帕勒莫枪击案.Palermo.Shooting.2008.1080p.BluRay.x264.DTS-ARCHFiLLER 15.64GB

帕勒莫枪击案.Palermo.Shooting.2008.1080p.BluRay.x264.DTS-ARCHFiLLER 15.64GB



蓝光高清网提示您 点击下方附件即可下载

帕勒莫枪击案.Palermo.Shooting.2008.1080p.BluRay.x264.DTS-ARCHFiLLER 15.64GB

Palermo.Shooting.2008.1080p.BluRay.x264.DTS-ARCHFiLLER.torrent ( 20.19 KB )

加入蓝光高清网VIP会员  无限制下载本站所有资源---点这里

资源下载、资源播放、字幕使用、无法下载等常见问题---点这里
回复

使用道具 举报

全部回复0 显示全部楼层

发表回复

您需要登录后才可以回帖 登录 | 立即注册

本版积分规则