本站已运行

蓝光高清网

搜索
开启左侧

[恐怖] 休赛期.Offseason.2021.1080p.BluRay.x264-SCARE 8.73GB

蓝鸟 发表于 2023-1-19 23:14:59 | 显示全部楼层 |阅读模式

休赛期.Offseason.2021.1080p.BluRay.x264-SCARE 8.73GB

休赛期.Offseason.2021.1080p.BluRay.x264-SCARE 8.73GB


标  题 休赛期
译  名 噤入坟场
片  名 Offseason
年  代 2021
产  地 美国
类  别 恐怖
语  言 英语
上映日期 2021-03-17(西南偏南电影节) / 2022-03-11(美国)
IMDb评分 4.9/10 (1952人评价)
豆瓣评分 5.2/10 (227人评价)
片  长 83分钟
导  演 米基·基廷 Mickey Keating
编  剧 米基·基廷 Mickey Keating
演  员 乔赛琳·唐娜休 Jocelin Donahue
       梅洛拉·沃尔特斯 Melora Walters
       理查德·布雷克 Richard Brake

简  介

After receiving a mysterious letter, a woman travels to a desolate island town and soon becomes trapped in a nightmare.

影片参数
  1. Video
  2. ID                                       : 1
  3. Format                                   : AVC
  4. Format/Info                              : Advanced Video Codec
  5. Format profile                           : [email protected]
  6. Format settings                          : CABAC / 5 Ref Frames
  7. Format settings, CABAC                   : Yes
  8. Format settings, Reference frames        : 5 frames
  9. Codec ID                                 : V_MPEG4/ISO/AVC
  10. Duration                                 : 1 h 23 min
  11. Bit rate                                 : 13.0 Mb/s
  12. Width                                    : 1 920 pixels
  13. Height                                   : 804 pixels
  14. Display aspect ratio                     : 2.40:1
  15. Frame rate mode                          : Constant
  16. Frame rate                               : 23.976 (24000/1001) FPS
  17. Color space                              : YUV
  18. Chroma subsampling                       : 4:2:0
  19. Bit depth                                : 8 bits
  20. Scan type                                : Progressive
  21. Bits/(Pixel*Frame)                       : 0.351
  22. Stream size                              : 7.56 GiB (87%)
  23. Writing library                          : x264 core 164 r3102 416e3eb
  24. Encoding settings                        : cabac=1 / ref=5 / deblock=1:-3:-3 / analyse=0x3:0x133 / me=umh / subme=10 / psy=1 / psy_rd=1.20:0.00 / mixed_ref=1 / me_range=24 / chroma_me=1 / trellis=2 / 8x8dct=1 / cqm=0 / deadzone=21,11 / fast_pskip=0 / chroma_qp_offset=-2 / threads=24 / lookahead_threads=4 / sliced_threads=0 / nr=0 / decimate=0 / interlaced=0 / bluray_compat=0 / constrained_intra=0 / bframes=8 / b_pyramid=2 / b_adapt=2 / b_bias=0 / direct=3 / weightb=1 / open_gop=0 / weightp=2 / keyint=250 / keyint_min=23 / scenecut=40 / intra_refresh=0 / rc_lookahead=60 / rc=crf / mbtree=1 / crf=14.0 / qcomp=0.60 / qpmin=0 / qpmax=69 / qpstep=4 / ip_ratio=1.40 / aq=3:0.90
  25. Default                                  : Yes
  26. Forced                                   : No
  27. Color range                              : Limited
  28. Matrix coefficients                      : BT.709
  29. Audio
  30. ID                                       : 2
  31. Format                                   : DTS XLL
  32. Format/Info                              : Digital Theater Systems
  33. Commercial name                          : DTS-HD Master Audio
  34. Codec ID                                 : A_DTS
  35. Duration                                 : 1 h 23 min
  36. Bit rate mode                            : Variable
  37. Bit rate                                 : 1 988 kb/s
  38. Channel(s)                               : 6 channels
  39. Channel layout                           : C L R Ls Rs LFE
  40. Sampling rate                            : 48.0 kHz
  41. Frame rate                               : 93.750 FPS (512 SPF)
  42. Bit depth                                : 16 bits
  43. Compression mode                         : Lossless
  44. Stream size                              : 1.16 GiB (13%)
  45. Language                                 : English
  46. Default                                  : Yes
  47. Forced                                   : No
  48. Text #1
  49. ID                                       : 3
  50. Format                                   : PGS
  51. Muxing mode                              : zlib
  52. Codec ID                                 : S_HDMV/PGS
  53. Codec ID/Info                            : Picture based subtitle format used on BDs/HD-DVDs
  54. Duration                                 : 1 h 22 min
  55. Bit rate                                 : 34.7 kb/s
  56. Count of elements                        : 2192
  57. Stream size                              : 20.4 MiB (0%)
  58. Title                                    : SDH
  59. Language                                 : English
  60. Default                                  : No
  61. Forced                                   : No
  62. Text #2
  63. ID                                       : 4
  64. Format                                   : PGS
  65. Muxing mode                              : zlib
  66. Codec ID                                 : S_HDMV/PGS
  67. Codec ID/Info                            : Picture based subtitle format used on BDs/HD-DVDs
  68. Duration                                 : 1 h 21 min
  69. Bit rate                                 : 24.5 kb/s
  70. Count of elements                        : 1486
  71. Stream size                              : 14.2 MiB (0%)
  72. Language                                 : French
  73. Default                                  : No
  74. Forced                                   : No
  75. Text #3
  76. ID                                       : 5
  77. Format                                   : PGS
  78. Muxing mode                              : zlib
  79. Codec ID                                 : S_HDMV/PGS
  80. Codec ID/Info                            : Picture based subtitle format used on BDs/HD-DVDs
  81. Duration                                 : 1 h 21 min
  82. Bit rate                                 : 23.1 kb/s
  83. Count of elements                        : 1432
  84. Stream size                              : 13.4 MiB (0%)
  85. Language                                 : Spanish
  86. Default                                  : No
  87. Forced                                   : No
  88. Menu
  89. 00:00:00.000                             : Chapter 01
  90. 00:05:58.483                             : Chapter 02
  91. 00:17:47.024                             : Chapter 03
  92. 00:30:19.234                             : Chapter 04
  93. 00:43:52.880                             : Chapter 05
  94. 00:49:16.036                             : Chapter 06
  95. 01:08:44.871                             : Chapter 07
  96. 01:17:47.454                             : Chapter 08
  97. 01:19:43.028                             : Chapter 09
  98. 01:23:13.864                             : Chapter 10
复制代码

休赛期.Offseason.2021.1080p.BluRay.x264-SCARE 8.73GB

休赛期.Offseason.2021.1080p.BluRay.x264-SCARE 8.73GB



蓝光高清网提示您 点击下方附件即可下载

休赛期.Offseason.2021.1080p.BluRay.x264-SCARE 8.73GB

Offseason.2021.1080p.BluRay.x264-SCARE.torrent ( 22.52 KB )

加入蓝光高清网VIP会员  无限制下载本站所有资源---点这里

资源下载、资源播放、字幕使用、无法下载等常见问题---点这里
回复

使用道具 举报

全部回复0 显示全部楼层

发表回复

您需要登录后才可以回帖 登录 | 立即注册

本版积分规则