本站已运行

蓝光高清网

搜索
开启左侧

Rainbow.2022.SPANISH.2160p.NF.WEB-DL.x265.10bit.SDR.DDP5.1.Atmos-电影下载

蓝鸟 发表于 2023-1-22 22:19:52 | 显示全部楼层 |阅读模式
Rainbow 豆瓣评分: 4.5分
上映时间:2022年        影片时长:118分钟
类型:剧情 
地区:其他 
导演:Paco León
主演:未知
画质标准:4K SDR  封装音轨:Dolby TrueHD 5.1 
简       介


       现代的多萝西(绿野仙踪的灵感)现在面临着十几岁的挑战。

影片参数

Rainbow.2022.SPANISH.2160p.NF.WEB-DL.x265.10bit.SDR.DDP5.1.Atmos-电影信息
Video
ID : 1
Format : HEVC
Format/Info : High Efficiency Video Coding
Format profile : Main 10@L5@Main
Codec ID : V_MPEGH/ISO/HEVC
Duration : 1 h 58 min
Bit rate : 11.7 Mb/s
Width : 3 840 pixels
Height : 2 160 pixels
Display aspect ratio : 16:9
Frame rate mode : Constant
Frame rate : 24.000 FPS
Color space : YUV
Chroma subsampling : 4:2:0
Bit depth : 10 bits
Bits/(Pixel*Frame) : 0.059
Stream size : 9.72 GiB (94%)
Default : Yes
Forced : No
Color range : Limited
Color primaries : BT.709
Transfer characteristics : BT.709
Matrix coefficients : BT.709


Audio
ID : 2
Format : E-AC-3 JOC
Format/Info : Enhanced AC-3 with Joint Object Coding
Commercial name : Dolby Digital Plus with Dolby Atmos
Codec ID : A_EAC3
Duration : 1 h 58 min
Bit rate mode : Constant
Bit rate : 768 kb/s
Channel(s) : 6 channels
Channel layout : L R C LFE Ls Rs
Sampling rate : 48.0 kHz
Frame rate : 31.250 FPS (1536 SPF)
Compression mode : Lossy
Stream size : 652 MiB (6%)
Title : European Spanish
Language : Spanish
Service kind : Complete Main
Default : No
Forced : No
Complexity index : 16
Number of dynamic objects : 15
Bed channel count : 1 channel
Bed channel configuration : LFE


Text #1
ID : 3
Format : UTF-8
Codec ID : S_TEXT/UTF8
Codec ID/Info : UTF-8 Plain Text
Duration : 1 h 57 min
Bit rate : 67 b/s
Frame rate : 0.183 FPS
Count of elements : 1287
Stream size : 57.8 KiB (0%)
Title : Arabic
Language : Arabic
Default : No
Forced : No


Text #2
ID : 4
Format : UTF-8
Codec ID : S_TEXT/UTF8
Codec ID/Info : UTF-8 Plain Text
Duration : 1 h 57 min
Bit rate : 39 b/s
Frame rate : 0.183 FPS
Count of elements : 1289
Stream size : 33.7 KiB (0%)
Title : Chinese Simplified
Language : Chinese
Default : No
Forced : No


Text #3
ID : 5
Format : UTF-8
Codec ID : S_TEXT/UTF8
Codec ID/Info : UTF-8 Plain Text
Duration : 1 h 57 min
Bit rate : 39 b/s
Frame rate : 0.183 FPS
Count of elements : 1289
Stream size : 34.1 KiB (0%)
Title : Chinese Traditional
Language : Chinese
Default : No
Forced : No


蓝光高清网提示您 点击下方附件名称 即可开始下载


Rainbow.2022.SPANISH.2160p.NF.WEB-DL.x265.10bit.SDR.DDP5.1.Atmos-电影下载

Rainbow.2022.SPANISH.2160p.NF.WEB-DL.x265.10bit.SDR.DDP5.1.Atmos-简繁中字【10.36 GB】

Rainbow.2022.SPANISH.2160p.NF.WEB-DL.x265.10bit.SDR.DDP5.1.Atmos-HHWEB.torrent ( 13.61 KB )


加入蓝光高清网VIP会员  无限制下载本站所有资源---点这里

资源下载、资源播放、字幕使用、无法下载等常见问题---点这里
回复

使用道具 举报

全部回复1 显示全部楼层
1080i 发表于 6 天前 | 显示全部楼层
T.h.a.n.k.s
回复

使用道具 举报

发表回复

您需要登录后才可以回帖 登录 | 立即注册

本版积分规则