本站已运行

蓝光高清网

搜索
开启左侧

菲戈往事:改变足坛的世纪转会4k.The.Figo.Affair.The.Transfer.that.Changed.Football.2022.SPANISH.2160p.NF.WEB-DL.x265.10bit.SDR.DDP5.1.Atmos-电影下载

蓝鸟 发表于 2023-1-22 22:26:42 | 显示全部楼层 |阅读模式
菲戈往事:改变足坛的世纪转会 豆瓣评分: 7.8分
上映时间:2022年        影片时长:105分钟
类型:纪录 
地区:英国 
导演:未知
主演:路易斯·菲戈 / 弗洛伦蒂诺·佩雷斯 / 何塞普·瓜迪奥拉 / 罗伯托·卡洛斯 / 费尔南多·耶罗
画质标准:4K SDR  封装音轨:Dolby TrueHD 5.1 
简       介


  1998 年一个宜人的夏日傍晚,世界足坛最炙手可热的球员路易斯·菲戈走上哥特式加泰罗尼亚宫(加泰罗尼亚总统的府邸)的阳台。他身穿俱乐部套装,头发染成蓝色和红色,在一群庆祝巴塞罗那最新联赛冠军的狂热观众面前抓住麦克风,高唱:“白衣哭泣,新王登基!”“皇马嘤嘤哭,冠军齐欢呼!”两年后,他来到巴塞罗那的诺坎普体育场,身上穿着的却正是那套白色球衣。他是皇马那支“银河舰队”中第一个加盟的巨星;他是世界上身价最高、收入最高的足球运动员;他是加泰罗尼亚最痛恨的人。
  路易斯·菲戈打破了转会记录,分裂了一个国家,塑造了现代足球;《菲戈往事:改变足坛的世纪转会》让观众深入了解菲戈,讲述了引人入胜的故事:他的转会是如何实现的、幕后交易过程中的一波三折、载入史册的体坛死敌、深刻的文化分歧,以及猪头事件。



影片参数
菲戈往事:改变足坛的世纪转会4k.The.Figo.Affair.The.Transfer.that.Changed.Football.2022.SPANISH.2160p.NF.WEB-DL.x265.10bit.SDR.DDP5.1.Atmos-电影信息
Video
ID : 1
Format : HEVC
Format/Info : High Efficiency Video Coding
Format profile : Main 10@L5@Main
Codec ID : V_MPEGH/ISO/HEVC
Duration : 1 h 45 min
Bit rate : 17.3 Mb/s
Width : 3 840 pixels
Height : 2 160 pixels
Display aspect ratio : 16:9
Frame rate mode : Constant
Frame rate : 25.000 FPS
Color space : YUV
Chroma subsampling : 4:2:0
Bit depth : 10 bits
Bits/(Pixel*Frame) : 0.084
Stream size : 12.8 GiB (92%)
Default : Yes
Forced : No
Color range : Limited
Color primaries : BT.709
Transfer characteristics : BT.709
Matrix coefficients : BT.709


Audio #1
ID : 2
Format : E-AC-3 JOC
Format/Info : Enhanced AC-3 with Joint Object Coding
Commercial name : Dolby Digital Plus with Dolby Atmos
Codec ID : A_EAC3
Duration : 1 h 45 min
Bit rate mode : Constant
Bit rate : 768 kb/s
Channel(s) : 6 channels
Channel layout : L R C LFE Ls Rs
Sampling rate : 48.0 kHz
Frame rate : 31.250 FPS (1536 SPF)
Compression mode : Lossy
Stream size : 580 MiB (4%)
Title : Spanish
Language : Spanish
Service kind : Complete Main
Default : Yes
Forced : No
Complexity index : 16
Number of dynamic objects : 15
Bed channel count : 1 channel
Bed channel configuration : LFE


Audio #2
ID : 3
Format : E-AC-3
Format/Info : Enhanced AC-3
Commercial name : Dolby Digital Plus
Codec ID : A_EAC3
Duration : 1 h 45 min
Bit rate mode : Constant
Bit rate : 640 kb/s
Channel(s) : 6 channels
Channel layout : L R C LFE Ls Rs
Sampling rate : 48.0 kHz
Frame rate : 31.250 FPS (1536 SPF)
Compression mode : Lossy
Stream size : 483 MiB (3%)
Title : English
Language : English
Service kind : Complete Main
Default : No
Forced : No


Text #31
ID : 34
Format : UTF-8
Codec ID : S_TEXT/UTF8
Codec ID/Info : UTF-8 Plain Text
Duration : 1 h 44 min
Bit rate : 117 b/s
Frame rate : 0.230 FPS
Count of elements : 1442
Stream size : 89.7 KiB (0%)
Title : Ukrainian
Language : Ukrainian
Default : No
Forced : No


Text #32
ID : 35
Format : UTF-8
Codec ID : S_TEXT/UTF8
Codec ID/Info : UTF-8 Plain Text
Duration : 1 h 44 min
Bit rate : 103 b/s
Frame rate : 0.211 FPS
Count of elements : 1326
Stream size : 79.3 KiB (0%)
Title : Vietnamese
Language : Vietnamese
Default : No
Forced : No


Text #33
ID : 36
Format : UTF-8
Codec ID : S_TEXT/UTF8
Codec ID/Info : UTF-8 Plain Text
Duration : 1 h 44 min
Bit rate : 70 b/s
Frame rate : 0.216 FPS
Count of elements : 1355
Stream size : 54.2 KiB (0%)
Title : Simplified, Chinese
Language : Chinese
Default : No
Forced : No


Text #34
ID : 37
Format : UTF-8
Codec ID : S_TEXT/UTF8
Codec ID/Info : UTF-8 Plain Text
Duration : 1 h 44 min
Bit rate : 64 b/s
Frame rate : 0.216 FPS
Count of elements : 1354
Stream size : 49.8 KiB (0%)
Title : Traditional, Chinese
Language : Chinese
Default : No
Forced : No


Menu
00:00:00.000 : enart 01
01:42:26.450 : en:Credits


蓝光高清网提示您 点击下方附件名称 即可开始下载


多版本下载时请注意区分


菲戈往事:改变足坛的世纪转会4k.The.Figo.Affair.The.Transfer.that.Changed.Football.2022.SPANISH.2160p.NF.WEB-DL.x265.10bit.SDR.DDP5.1.Atmos-电影下载

菲戈往事:改变足坛的世纪转会4k.The.Figo.Affair.The.Transfer.that.Changed.Football.2022.SPANISH.2160p.NF.WEB-DL.x265.10bit.SDR.DDP5.1.Atmos-简繁中字【13.83 GB】

菲戈往事:改变足坛的世纪转会4k.The.Figo.Affair.The.Transfer.that.Changed.Football.2022.SPANISH.2160p.NF.WEB-DL.x265.10bit.SDR.DDP5.1.Atmos-XEBEC.torrent ( 18.03 KB )



菲戈往事:改变足坛的世纪转会4k.The.Figo.Affair.The.Transfer.that.Changed.Football.2022.SPANISH.2160p.NF.WEB-DL.x265.10bit.HDR.DDP5.1.Atmos-简繁中字【12.54 GB】

菲戈往事:改变足坛的世纪转会4k.The.Figo.Affair.The.Transfer.that.Changed.Football.2022.SPANISH.2160p.NF.WEB-DL.x265.10bit.HDR.DDP5.1.Atmos-XEBEC.torrent ( 16.42 KB )



加入蓝光高清网VIP会员  无限制下载本站所有资源---点这里

资源下载、资源播放、字幕使用、无法下载等常见问题---点这里
回复

使用道具 举报

全部回复4 显示全部楼层
dongshouba手机认证 发表于 2023-1-31 01:02:27 | 显示全部楼层
感谢分享
回复

使用道具 举报

1080i 发表于 4 天前 | 显示全部楼层
T.h.a.n.k.s
回复

使用道具 举报

gdlmxia 发表于 前天 14:27 | 显示全部楼层
太好啦&萬分感謝版主的無私發佈分享%
回复 支持 反对

使用道具 举报

热水滴 发表于 前天 15:51 | 显示全部楼层
谢谢楼主分享
回复 支持 反对

使用道具 举报

发表回复

您需要登录后才可以回帖 登录 | 立即注册

本版积分规则