本站已运行

蓝光高清网

搜索
开启左侧

布尔萨的夜莺4k.The.Nightingale.of.Bursa.2023.TURKISH.2160p.DSNP.WEB-DL.x265.10bit.HDR.DDP5.1.Atmos-4K电影

蓝鸟 发表于 2023-3-18 17:36:30 | 显示全部楼层 |阅读模式
布尔萨的夜莺 豆瓣评分: 无评分
上映时间:2023年        影片时长:120分钟
类型:喜剧 音乐 
地区:其他 
导演:Hakan Algül
主演:Ata Demirer / Özge Özacar / Cem Gelinoglu
画质标准:4K  封装音轨:Dolby TrueHD 5.1 
简       介

  这部电影讲述了一个名叫坚吉兹的布尔萨市歌手,他为了爱情而放弃了自己的梦想的故事。

影片参数
布尔萨的夜莺4k.The.Nightingale.of.Bursa.2023.TURKISH.2160p.DSNP.WEB-DL.x265.10bit.HDR.DDP5.1.Atmos-电影信息
Video
ID : 1
Format : HEVC
Format/Info : High Efficiency Video Coding
Format profile : Main 10@L5@High
HDR format : SMPTE ST 2086, HDR10 compatible
Codec ID : V_MPEGH/ISO/HEVC
Duration : 2 h 0 min
Bit rate : 13.9 Mb/s
Width : 3 840 pixels
Height : 2 160 pixels
Display aspect ratio : 16:9
Frame rate mode : Constant
Frame rate : 25.000 FPS
Color space : YUV
Chroma subsampling : 4:2:0
Bit depth : 10 bits
Bits/(Pixel*Frame) : 0.067
Stream size : 11.7 GiB (95%)
Language : English
Default : Yes
Forced : No
Color range : Limited
Color primaries : BT.2020
Transfer characteristics : PQ
Matrix coefficients : BT.2020 non-constant
Mastering display color primaries : BT.2020
Mastering display luminance : min: 0.0010 cd/m2, max: 1000 cd/m2


Audio
ID : 2
Format : E-AC-3 JOC
Format/Info : Enhanced AC-3 with Joint Object Coding
Commercial name : Dolby Digital Plus with Dolby Atmos
Codec ID : A_EAC3
Duration : 2 h 0 min
Bit rate mode : Constant
Bit rate : 768 kb/s
Channel(s) : 6 channels
Channel layout : L R C LFE Ls Rs
Sampling rate : 48.0 kHz
Frame rate : 31.250 FPS (1536 SPF)
Compression mode : Lossy
Stream size : 663 MiB (5%)
Language : Turkish
Service kind : Complete Main
Default : Yes
Forced : No
Complexity index : 16
Number of dynamic objects : 15
Bed channel count : 1 channel
Bed channel configuration : LFE


Text #1
ID : 3
Format : UTF-8
Codec ID : S_TEXT/UTF8
Codec ID/Info : UTF-8 Plain Text
Duration : 2 h 0 min
Bit rate : 85 b/s
Frame rate : 0.289 FPS
Count of elements : 2090
Stream size : 75.0 KiB (0%)
Language : English
Default : No
Forced : No


Text #2
ID : 4
Format : UTF-8
Codec ID : S_TEXT/UTF8
Codec ID/Info : UTF-8 Plain Text
Duration : 2 h 0 min
Bit rate : 92 b/s
Frame rate : 0.309 FPS
Count of elements : 2230
Stream size : 81.7 KiB (0%)
Title : SDH
Language : English
Default : No
Forced : No


Text #3
ID : 5
Format : UTF-8
Codec ID : S_TEXT/UTF8
Codec ID/Info : UTF-8 Plain Text
Duration : 2 h 0 min
Bit rate : 71 b/s
Frame rate : 0.260 FPS
Count of elements : 1875
Stream size : 62.7 KiB (0%)
Language : Czech
Default : No
Forced : No


Text #4
ID : 6
Format : UTF-8
Codec ID : S_TEXT/UTF8
Codec ID/Info : UTF-8 Plain Text
Duration : 2 h 0 min
Bit rate : 72 b/s
Frame rate : 0.275 FPS
Count of elements : 1986
Stream size : 64.2 KiB (0%)
Language : Danish
Default : No
Forced : No


Text #5
ID : 7
Format : UTF-8
Codec ID : S_TEXT/UTF8
Codec ID/Info : UTF-8 Plain Text
Duration : 2 h 0 min
Bit rate : 69 b/s
Frame rate : 0.268 FPS
Count of elements : 1935
Stream size : 61.4 KiB (0%)
Language : German
Default : No
Forced : No


Text #6
ID : 8
Format : UTF-8
Codec ID : S_TEXT/UTF8
Codec ID/Info : UTF-8 Plain Text
Duration : 2 h 0 min
Bit rate : 119 b/s
Frame rate : 0.269 FPS
Count of elements : 1941
Stream size : 106 KiB (0%)
Language : Greek
Default : No
Forced : No


Text #7
ID : 9
Format : UTF-8
Codec ID : S_TEXT/UTF8
Codec ID/Info : UTF-8 Plain Text
Duration : 2 h 0 min
Bit rate : 63 b/s
Frame rate : 0.270 FPS
Count of elements : 1951
Stream size : 55.7 KiB (0%)
Title : Latin America
Language : Spanish (Latin America)
Default : No
Forced : No


Text #8
ID : 10
Format : UTF-8
Codec ID : S_TEXT/UTF8
Codec ID/Info : UTF-8 Plain Text
Duration : 2 h 0 min
Bit rate : 59 b/s
Frame rate : 0.232 FPS
Count of elements : 1678
Stream size : 52.5 KiB (0%)
Language : Spanish (ES)
Default : No
Forced : No


Text #9
ID : 11
Format : UTF-8
Codec ID : S_TEXT/UTF8
Codec ID/Info : UTF-8 Plain Text
Duration : 2 h 0 min
Bit rate : 61 b/s
Frame rate : 0.240 FPS
Count of elements : 1730
Stream size : 53.9 KiB (0%)
Language : Finnish
Default : No
Forced : No


Text #10
ID : 12
Format : UTF-8
Codec ID : S_TEXT/UTF8
Codec ID/Info : UTF-8 Plain Text
Duration : 2 h 0 min
Bit rate : 61 b/s
Frame rate : 0.238 FPS
Count of elements : 1720
Stream size : 54.4 KiB (0%)
Language : French (FR)
Default : No
Forced : No


Text #11
ID : 13
Format : UTF-8
Codec ID : S_TEXT/UTF8
Codec ID/Info : UTF-8 Plain Text
Duration : 2 h 0 min
Bit rate : 64 b/s
Frame rate : 0.228 FPS
Count of elements : 1645
Stream size : 57.1 KiB (0%)
Language : Hungarian
Default : No
Forced : No


Text #12
ID : 14
Format : UTF-8
Codec ID : S_TEXT/UTF8
Codec ID/Info : UTF-8 Plain Text
Duration : 2 h 0 min
Bit rate : 66 b/s
Frame rate : 0.258 FPS
Count of elements : 1860
Stream size : 59.0 KiB (0%)
Language : Italian
Default : No
Forced : No


Text #13
ID : 15
Format : UTF-8
Codec ID : S_TEXT/UTF8
Codec ID/Info : UTF-8 Plain Text
Duration : 2 h 0 min
Bit rate : 55 b/s
Frame rate : 0.235 FPS
Count of elements : 1699
Stream size : 48.9 KiB (0%)
Language : Japanese
Default : No
Forced : No


Text #14
ID : 16
Format : UTF-8
Codec ID : S_TEXT/UTF8
Codec ID/Info : UTF-8 Plain Text
Duration : 2 h 0 min
Bit rate : 83 b/s
Frame rate : 0.275 FPS
Count of elements : 1985
Stream size : 73.6 KiB (0%)
Language : Korean
Default : No
Forced : No


Text #15
ID : 17
Format : UTF-8
Codec ID : S_TEXT/UTF8
Codec ID/Info : UTF-8 Plain Text
Duration : 2 h 0 min
Bit rate : 67 b/s
Frame rate : 0.221 FPS
Count of elements : 1597
Stream size : 59.3 KiB (0%)
Language : Dutch
Default : No
Forced : No


Text #16
ID : 18
Format : UTF-8
Codec ID : S_TEXT/UTF8
Codec ID/Info : UTF-8 Plain Text
Duration : 2 h 0 min
Bit rate : 68 b/s
Frame rate : 0.253 FPS
Count of elements : 1826
Stream size : 60.8 KiB (0%)
Language : Norwegian
Default : No
Forced : No


Text #17
ID : 19
Format : UTF-8
Codec ID : S_TEXT/UTF8
Codec ID/Info : UTF-8 Plain Text
Duration : 2 h 0 min
Bit rate : 64 b/s
Frame rate : 0.274 FPS
Count of elements : 1979
Stream size : 57.1 KiB (0%)
Language : Polish
Default : No
Forced : No


Text #18
ID : 20
Format : UTF-8
Codec ID : S_TEXT/UTF8
Codec ID/Info : UTF-8 Plain Text
Duration : 2 h 0 min
Bit rate : 64 b/s
Frame rate : 0.267 FPS
Count of elements : 1925
Stream size : 57.1 KiB (0%)
Title : Brazil
Language : Portuguese (BR)
Default : No
Forced : No


Text #19
ID : 21
Format : UTF-8
Codec ID : S_TEXT/UTF8
Codec ID/Info : UTF-8 Plain Text
Duration : 2 h 0 min
Bit rate : 70 b/s
Frame rate : 0.273 FPS
Count of elements : 1974
Stream size : 62.1 KiB (0%)
Language : Portuguese (PT)
Default : No
Forced : No


Text #20
ID : 22
Format : UTF-8
Codec ID : S_TEXT/UTF8
Codec ID/Info : UTF-8 Plain Text
Duration : 2 h 0 min
Bit rate : 68 b/s
Frame rate : 0.222 FPS
Count of elements : 1600
Stream size : 60.6 KiB (0%)
Language : Romanian
Default : No
Forced : No


Text #21
ID : 23
Format : UTF-8
Codec ID : S_TEXT/UTF8
Codec ID/Info : UTF-8 Plain Text
Duration : 2 h 0 min
Bit rate : 66 b/s
Frame rate : 0.274 FPS
Count of elements : 1976
Stream size : 58.2 KiB (0%)
Language : Slovak
Default : No
Forced : No


Text #22
ID : 24
Format : UTF-8
Codec ID : S_TEXT/UTF8
Codec ID/Info : UTF-8 Plain Text
Duration : 2 h 0 min
Bit rate : 74 b/s
Frame rate : 0.275 FPS
Count of elements : 1988
Stream size : 65.4 KiB (0%)
Language : Swedish
Default : No
Forced : No


Text #23
ID : 25
Format : UTF-8
Codec ID : S_TEXT/UTF8
Codec ID/Info : UTF-8 Plain Text
Duration : 2 h 0 min
Bit rate : 81 b/s
Frame rate : 0.289 FPS
Count of elements : 2088
Stream size : 72.1 KiB (0%)
Language : Turkish
Default : No
Forced : No


Text #24
ID : 26
Format : UTF-8
Codec ID : S_TEXT/UTF8
Codec ID/Info : UTF-8 Plain Text
Duration : 2 h 0 min
Bit rate : 69 b/s
Frame rate : 0.275 FPS
Count of elements : 1989
Stream size : 61.6 KiB (0%)
Title : Traditional
Language : Chinese (Traditional)
Default : No
Forced : No


Menu
01:58:23.480 : en:Credits

蓝光高清网提示您 点击下方附件名称 即可开始下载

布尔萨的夜莺4k.The.Nightingale.of.Bursa.2023.TURKISH.2160p.DSNP.WEB-DL.x265.10bit.HDR.DDP5.1.Atmos-电影下载

布尔萨的夜莺4k.The.Nightingale.of.Bursa.2023.TURKISH.2160p.DSNP.WEB-DL.x265.10bit.HDR.DDP5.1.Atmos【中字 12.38 GB】

布尔萨的夜莺4k.The.Nightingale.of.Bursa.2023.TURKISH.2160p.DSNP.WEB-DL.x265.10bit.HDR.DDP5.1.Atmos-playWEB.torrent ( 16.16 KB )



布尔萨的夜莺4k.The.Nightingale.of.Bursa.2023.TURKISH.2160p.DSNP.WEB-DL.DDP5.1.Atmos.DV.MP4.x265【14.41 GB】

布尔萨的夜莺4k.The.Nightingale.of.Bursa.2023.TURKISH.2160p.DSNP.WEB-DL.DDP5.1.Atmos.DV.MP4.x265-DVSUX.torrent ( 18.72 KB )



布尔萨的夜莺4k.The.Nightingale.of.Bursa.2023.TURKISH.2160p.DSNP.WEB-DL.DDP5.1.Atmos.DV.MKV.x265【14.41 GB】

布尔萨的夜莺4k.The.Nightingale.of.Bursa.2023.TURKISH.2160p.DSNP.WEB-DL.DDP5.1.Atmos.DV.MKV.x265-PlayWEB.torrent ( 18.7 KB )



加入蓝光高清网VIP会员  无限制下载本站所有资源---点这里

资源下载、资源播放、字幕使用、无法下载等常见问题---点这里
回复

使用道具 举报

全部回复1 显示全部楼层
1080i 发表于 5 天前 | 显示全部楼层
T.h.a.n.k.s
回复

使用道具 举报

发表回复

您需要登录后才可以回帖 登录 | 立即注册

本版积分规则