本站已运行

蓝光高清网

搜索

黑豹2.Black.Panther.Wakanda.Forever.2022.1080p.3D.BluRay.Half-SBS.x264.DTS-HD.MA.7.1 3D电影

蓝鸟 发表于 2023-4-7 17:47:24 | 显示全部楼层 |阅读模式
黑豹2 豆瓣评分: 5.4分
年代:2022年上映
片长:161分钟
地区:美国
类型:动作 科幻 奇幻 冒险 
导演:瑞恩·库格勒 / Ryan Coogler
主演:利蒂希娅·赖特 / 露皮塔·尼永奥 / 丹娜·奎里拉 /温斯顿·杜克 /安吉拉·贝塞特
3 D 格式:hsbs  封装音轨:DTS-HD.MA 7.1 
本帖最后由 蓝鸟 于 2023-4-7 17:48 编辑

简  介 

  在“黑豹”特查拉国王不幸去世后,苏睿(利蒂希娅·赖特 Letitia Wright 饰)、奥克耶(丹娜·奎里拉 Danai Gurira 饰)、拉曼达女王(安吉拉·贝塞特 Angela Bassett 饰)、姆巴库(温斯顿·杜克 Winston Duke 饰)为了保护瓦坎达而战。瓦坎达人努力迎接他们的新篇章,他们必须在娜吉雅(露皮塔·尼永奥 Lupita Nyong'o 饰)和罗斯探员(马丁·弗瑞曼 Martin Freeman 饰)的帮助下团结起来,为瓦坎达王国开辟新道路。


获奖情况 
  第95届奥斯卡金像奖 (2023)
  最佳女配角(提名) 安吉拉·贝塞特
  最佳视觉效果(提名) 克雷格·哈迈克,R·克里斯托弗·怀特,杰弗里·鲍曼,丹尼尔·萨迪克
  最佳服装设计 露丝·E·卡特
  最佳化妆与发型设计(提名) 乔尔·哈罗,卡米尔·弗伦德
  最佳原创歌曲(提名) 特姆斯,路德维格·戈兰松,瑞恩·库格勒,蕾哈娜
  第80届金球奖 (2023)
  电影类 最佳女配角 安吉拉·贝塞特
  电影类 最佳原创歌曲(提名) 路德维格·戈兰松,瑞恩·库格勒,蕾哈娜
  第76届英国电影学院奖 (2023)
  电影奖 最佳女配角(提名) 安吉拉·贝塞特
  第29届美国演员工会奖 (2023)
  电影奖 最佳女配角(提名) 安吉拉·贝塞特
  第34届美国制片人工会奖 (2023)
  最佳电影制片人奖(提名)


Video
ID : 1
Format : AVC
Format/Info : Advanced Video Codec
Format profile : High@L4.1
Format settings : CABAC / 2 Ref Frames
Format settings, CABAC : Yes
Format settings, Reference frames : 2 frames
Format settings, GOP : M=3, N=24
Codec ID : V_MPEG4/ISO/AVC
Duration : 2 h 41 min
Bit rate : 13.3 Mb/s
Nominal bit rate : 15.5 Mb/s
Width : 1 920 pixels
Height : 1 080 pixels
Display aspect ratio : 16:9
Frame rate mode : Constant
Frame rate : 23.976 (24000/1001) FPS
Color space : YUV
Chroma subsampling : 4:2:0
Bit depth : 8 bits
Scan type : Progressive
Bits/(Pixel*Frame) : 0.268
Stream size : 15.0 GiB (59%)
Writing library : x264 core 148
Encoding settings : cabac=1 / ref=1 / deblock=1:-1:-1 / analyse=0x3:0 / me=hex / subme=5 / psy=0 / mixed_ref=0 / me_range=16 / chroma_me=1 / trellis=0 / 8x8dct=1 / cqm=0 / deadzone=21,11 / fast_pskip=0 / chroma_qp_offset=0 / threads=48 / lookahead_threads=8 / sliced_threads=0 / nr=0 / decimate=1 / interlaced=0 / bluray_compat=0 / constrained_intra=0 / bframes=2 / b_pyramid=0 / b_adapt=1 / b_bias=0 / direct=1 / weightb=0 / open_gop=0 / weightp=0 / keyint=24 / keyint_min=13 / scenecut=40 / intra_refresh=0 / rc_lookahead=24 / rc=cbr / mbtree=0 / bitrate=15500 / ratetol=1.0 / qcomp=0.60 / qpmin=0 / qpmax=69 / qpstep=4 / vbv_maxrate=15500 / vbv_bufsize=15500 / nal_hrd=none / filler=0 / ip_ratio=1.40 / pb_ratio=1.30 / aq=1:1.00
Default : Yes
Forced : No
Color range : Limited
Color primaries : BT.709
Transfer characteristics : BT.709
Matrix coefficients : BT.709
Audio #1
ID : 2
Format : DTS XLL
Format/Info : Digital Theater Systems
Commercial name : DTS-HD Master Audio
Codec ID : A_DTS
Duration : 2 h 41 min
Bit rate mode : Variable
Bit rate : 4 844 kb/s
Channel(s) : 8 channels
Channel layout : C L R LFE Lb Rb Lss Rss
Sampling rate : 48.0 kHz
Frame rate : 93.750 FPS (512 SPF)
Bit depth : 24 bits
Compression mode : Lossless
Stream size : 5.46 GiB (22%)
Title : DTS-HD MA 7.1
Language : English
Default : Yes
Forced : No
Audio #2
ID : 3
Format : DTS XBR
Format/Info : Digital Theater Systems
Commercial name : DTS-HD High Resolution Audio
Codec ID : A_DTS
Duration : 2 h 41 min
Bit rate mode : Constant
Bit rate : 2 046 kb/s
Channel(s) : 8 channels
Channel layout : C L R LFE Lb Rb Lss Rss
Sampling rate : 48.0 kHz
Frame rate : 93.750 FPS (512 SPF)
Bit depth : 24 bits
Compression mode : Lossy
Stream size : 2.31 GiB (9%)
Title : DTS-HR 7.1
Language : Japanese
Default : No
Forced : No
Audio #3
ID : 4
ID in the original source medium : 4353 (0x1101)
Format : AC-3
Format/Info : Audio Coding 3
Commercial name : Dolby Digital
Codec ID : A_AC3
Duration : 2 h 41 min
Bit rate mode : Constant
Bit rate : 320 kb/s
Channel(s) : 2 channels
Channel layout : L R
Sampling rate : 48.0 kHz
Frame rate : 31.250 FPS (1536 SPF)
Compression mode : Lossy
Stream size : 369 MiB (1%)
Title : DD 2.0
Language : English
Service kind : Complete Main
Default : No
Forced : No
Original source medium : Blu-ray
Audio #4
ID : 5
Format : E-AC-3
Format/Info : Enhanced AC-3
Commercial name : Dolby Digital Plus
Format profile : Blu-ray Disc
Codec ID : A_EAC3
Duration : 2 h 41 min
Bit rate mode : Constant
Bit rate : 1 024 kb/s
Channel(s) : 8 channels
Channel layout : L R C LFE Ls Rs Lb Rb
Sampling rate : 48.0 kHz
Frame rate : 31.250 FPS (1536 SPF)
Compression mode : Lossy
Stream size : 1.15 GiB (5%)
Title : DDP 7.1
Language : Spanish
Service kind : Complete Main
Default : No
Forced : No
Audio #5
ID : 6
ID in the original source medium : 4354 (0x1102)
Format : AC-3
Format/Info : Audio Coding 3
Commercial name : Dolby Digital
Codec ID : A_AC3
Duration : 2 h 41 min
Bit rate mode : Constant
Bit rate : 640 kb/s
Channel(s) : 6 channels
Channel layout : L R C LFE Ls Rs
Sampling rate : 48.0 kHz
Frame rate : 31.250 FPS (1536 SPF)
Compression mode : Lossy
Stream size : 738 MiB (3%)
Title : DD 5.1
Language : Spanish
Service kind : Complete Main
Default : No
Forced : No
Original source medium : Blu-ray
Audio #6
ID : 7
ID in the original source medium : 4355 (0x1103)
Format : AC-3
Format/Info : Audio Coding 3
Commercial name : Dolby Digital
Codec ID : A_AC3
Duration : 2 h 41 min
Bit rate mode : Constant
Bit rate : 192 kb/s
Channel(s) : 2 channels
Channel layout : L R
Sampling rate : 48.0 kHz
Frame rate : 31.250 FPS (1536 SPF)
Compression mode : Lossy
Stream size : 222 MiB (1%)
Title : DD 2.0 - COMMENTARY
Language : English
Service kind : Complete Main
Default : No
Forced : No
Original source medium : Blu-ray
Text #1
ID : 8
Format : PGS
Muxing mode : zlib
Codec ID : S_HDMV/PGS
Codec ID/Info : Picture based subtitle format used on BDs/HD-DVDs
Duration : 2 h 33 min
Bit rate : 39.0 kb/s
Frame rate : 0.380 FPS
Count of elements : 3496
Stream size : 42.8 MiB (0%)
Language : English
Default : Yes
Forced : No
Text #2
ID : 9
Format : UTF-8
Codec ID : S_TEXT/UTF8
Codec ID/Info : UTF-8 Plain Text
Duration : 2 h 37 min
Bit rate : 44 b/s
Frame rate : 0.192 FPS
Count of elements : 1813
Stream size : 51.2 KiB (0%)
Language : English
Default : No
Forced : No
Text #3
ID : 10
Format : UTF-8
Codec ID : S_TEXT/UTF8
Codec ID/Info : UTF-8 Plain Text
Duration : 2 h 38 min
Bit rate : 55 b/s
Frame rate : 0.253 FPS
Count of elements : 2406
Stream size : 64.0 KiB (0%)
Title : SDH
Language : English
Default : No
Forced : No
Text #4
ID : 11
ID in the original source medium : 4608 (0x1200)
Format : PGS
Muxing mode : zlib
Codec ID : S_HDMV/PGS
Codec ID/Info : Picture based subtitle format used on BDs/HD-DVDs
Duration : 2 h 38 min
Bit rate : 38.8 kb/s
Frame rate : 0.511 FPS
Count of elements : 4856
Stream size : 44.0 MiB (0%)
Language : English
Default : No
Forced : No
Original source medium : Blu-ray
Text #5
ID : 12
ID in the original source medium : 4609 (0x1201)
Format : PGS
Muxing mode : zlib
Codec ID : S_HDMV/PGS
Codec ID/Info : Picture based subtitle format used on BDs/HD-DVDs
Duration : 2 h 41 min
Bit rate : 27.4 kb/s
Frame rate : 0.360 FPS
Count of elements : 3476
Stream size : 31.6 MiB (0%)
Language : Spanish
Default : No
Forced : No
Original source medium : Blu-ray
Text #6
ID : 13
ID in the original source medium : 4610 (0x1202)
Format : PGS
Muxing mode : zlib
Codec ID : S_HDMV/PGS
Codec ID/Info : Picture based subtitle format used on BDs/HD-DVDs
Duration : 2 h 41 min
Bit rate : 74.5 kb/s
Frame rate : 0.711 FPS
Count of elements : 6872
Stream size : 85.9 MiB (0%)
Title : COMMENTARY
Language : English
Default : No
Forced : No
Original source medium : Blu-ray
Text #7
ID : 14
ID in the original source medium : 4611 (0x1203)
Format : PGS
Muxing mode : zlib
Codec ID : S_HDMV/PGS
Codec ID/Info : Picture based subtitle format used on BDs/HD-DVDs
Duration : 2 h 41 min
Bit rate : 58.0 kb/s
Frame rate : 0.633 FPS
Count of elements : 6118
Stream size : 66.8 MiB (0%)
Title : COMMENTARY
Language : Spanish
Default : No
Forced : No
Original source medium : Blu-ray
Text #8
ID : 15
ID in the original source medium : 4612 (0x1204)
Format : PGS
Muxing mode : zlib
Codec ID : S_HDMV/PGS
Codec ID/Info : Picture based subtitle format used on BDs/HD-DVDs
Duration : 2 h 39 min
Bit rate : 2 161 b/s
Frame rate : 0.038 FPS
Count of elements : 366
Stream size : 2.46 MiB (0%)
Title : FORCED
Language : Spanish
Default : No
Forced : No
Original source medium : Blu-ray
Text #9
ID : 16
ID in the original source medium : 4768 (0x12A0)
Format : PGS
Muxing mode : zlib
Codec ID : S_HDMV/PGS
Codec ID/Info : Picture based subtitle format used on BDs/HD-DVDs
Duration : 2 h 38 min
Bit rate : 38.5 kb/s
Frame rate : 0.511 FPS
Count of elements : 4856
Stream size : 43.6 MiB (0%)
Language : English
Default : No
Forced : No
Original source medium : Blu-ray
Menu
00:00:00.000 : en:Chapter 01
00:06:23.716 : en:Chapter 02
00:11:47.581 : en:Chapter 03
00:18:45.916 : en:Chapter 04
00:23:16.686 : en:Chapter 05
00:29:52.415 : en:Chapter 06
00:33:12.949 : en:Chapter 07
00:35:17.740 : en:Chapter 08
00:39:54.183 : en:Chapter 09
00:46:41.715 : en:Chapter 10
00:53:11.021 : en:Chapter 11
00:58:20.997 : en:Chapter 12
01:02:33.166 : en:Chapter 13
01:04:52.388 : en:Chapter 14
01:12:35.434 : en:Chapter 15
01:21:47.193 : en:Chapter 16
01:28:29.345 : en:Chapter 17
01:40:24.018 : en:Chapter 18
01:44:45.195 : en:Chapter 19
01:53:09.407 : en:Chapter 20
01:58:03.576 : en:Chapter 21
02:04:36.177 : en:Chapter 22
02:10:13.680 : en:Chapter 23
02:19:33.448 : en:Chapter 24
02:24:00.882 : en:Chapter 25
02:31:27.661 : en:Chapter 26
02:33:54.308 : en:Chapter 27

黑豹2.Black.Panther.Wakanda.Forever.2022.1080p.3D.BluRay.Half-SBS.x264.DTS-HD.MA.7.1 3D电影

黑豹2.Black.Panther.Wakanda.Forever.2022.1080p.3D.BluRay.Half-SBS.x264.DTS-HD.MA.7.1 3D电影

黑豹2.Black.Panther.Wakanda.Forever.2022.1080p.3D.BluRay.Half-SBS.x264.DTS-HD.MA.7.1 3D电影

黑豹2.Black.Panther.Wakanda.Forever.2022.1080p.3D.BluRay.Half-SBS.x264.DTS-HD.MA.7.1 3D电影


黑豹2.Black.Panther.Wakanda.Forever.2022.1080p.3D.BluRay.Half-SBS.x264.DTS-HD.MA.7.1 3D电影

黑豹2.Black.Panther.Wakanda.Forever.2022.1080p.3D.BluRay.Half-SBS.x264.DTS-HD.MA.7.1 3D电影


黑豹2.Black.Panther.Wakanda.Forever.2022.1080p.3D.BluRay.Half-SBS.x264.DTS-HD.MA.7.1-FGT 25.33GB

Black.Panther.Wakanda.Forever.2022.1080p.3D.BluRay.Half-SBS.x264.DTS-HD.MA.7.1-FGT.torrent ( 32.36 KB )


黑豹2.Black.Panther.Wakanda.Forever.2022.1080p.3D.BluRay.Half-OU.x264.TrueHD.7.1.Atmos-FGT 27.52GB

Black.Panther.Wakanda.Forever.2022.1080p.3D.BluRay.Half-OU.x264.TrueHD.7.1.Atmos-FGT.torrent ( 35.1 KB )


黑豹2.Black.Panther.Wakanda.Forever.2022.1080p.3D.BluRay.Half-SBS.x264.TrueHD.7.1.Atmos-FGT 25.95GB

Black.Panther.Wakanda.Forever.2022.1080p.3D.BluRay.Half-SBS.x264.TrueHD.7.1.Atmos-FGT.torrent ( 33.15 KB )


黑豹2.Black.Panther.Wakanda.Forever.2022.1080p.3D.BluRay.AVC.DTS-HD.MA.7.1-3DT 46.11GB

Black.Panther.Wakanda.Forever.2022.1080p.3D.BluRay.AVC.DTS-HD.MA.7.1-3DT.torrent ( 58.32 KB )


黑豹2.Black.Panther.Wakanda.Forever.2022.1080p.3D.BluRay.Half-OU.x264.DTS-HD.MA.7.1-FGT 26.90GB

Black.Panther.Wakanda.Forever.2022.1080p.3D.BluRay.Half-OU.x264.DTS-HD.MA.7.1-FGT.torrent ( 34.31 KB )



加入蓝光高清网VIP会员  无限制下载本站所有资源---点这里

资源下载、资源播放、字幕使用、无法下载等常见问题---点这里
回复

使用道具 举报

全部回复4 显示全部楼层
zhuze1234手机认证 发表于 2023-4-22 15:51:08 | 显示全部楼层
我想下载此电影
回复 支持 反对

使用道具 举报

zxm933148手机认证 发表于 2023-5-20 09:57:15 | 显示全部楼层
蓝光高清网是个好地方
回复 支持 反对

使用道具 举报

yuanfeng814手机认证 发表于 2023-6-12 12:23:40 | 显示全部楼层
新出的电影基本都找不到3D版的,赞赞赞
回复 支持 反对

使用道具 举报

西安老白 发表于 2024-3-7 00:01:19 | 显示全部楼层
黑豹2.Black.Panther.Wakanda.Forever.2022.1080p.3D.
回复 支持 反对

使用道具 举报

发表回复

您需要登录后才可以回帖 登录 | 立即注册

本版积分规则

开通会员 帮助中心 返回顶部 返回列表