本站已运行

蓝光高清网

搜索

[剧情] 水俣病.Minamata.2020.1080p.BluRay.x264-KNiVES 10.38GB

蓝鸟 发表于 2023-5-20 10:05:43 | 显示全部楼层 |阅读模式

水俣病.Minamata.2020.1080p.BluRay.x264-KNiVES 10.38GB

水俣病.Minamata.2020.1080p.BluRay.x264-KNiVES 10.38GB


译  名 水俣病 / 毒水曝光(港) / 恶水真相(台) / 水俣
片  名 Minamata
年  代 2020
产  地 英国
类  别 剧情
语  言 英语 / 日语
上映日期 2020-02-21(柏林电影节) / 2021-04-22(中国香港)
IMDb评星  ★★★★★★★☆☆☆
IMDb评分  7.2/10 from 21,484 users
豆瓣评星 ★★★✦☆
豆瓣评分 7.0/10 from 5,258 users
片  长 115分钟
导  演 安德鲁·莱维塔斯 / Andrew Levitas
演  员 约翰尼·德普 / Johnny Depp | 饰 W. Eugene Smith
      美波 / Minami | 饰 Aileen
      比尔·奈伊 / Bill Nighy | 饰 Robert Hayes
      真田广之 / Hiroyuki Sanada | 饰 Mitsuo Yamazaki
      浅野忠信 / Tadanobu Asano | 饰 Tatsuo Matsumura
      凯瑟琳·詹金斯 / Katherine Jenkins | 饰 Millie
      国村隼 / Jun Kunimura | 饰 Junichi Nojima
      加濑亮 / Ryo Kase
      羽田昌义 / Masayoshi Haneda
编  剧 大卫·凯斯勒 / David Kessler
      安德鲁·莱维塔斯 / Andrew Levitas
音  乐 坂本龙一 / Ryuichi Sakamoto
剪  辑 内森·纽金特 / Nathan Nugent
服  装 莫米尔卡·拜洛维奇 / Momirka Bailovic

简  介

约翰尼·德普将主演惊悚片《水俣病》(Minamata),饰演史上最著名的摄影记者之一尤金·史密斯。影片由Andrew Levitas(《摇篮曲》)执导,明年1月在日本开拍,也将去塞尔维亚拍摄。讲述因二战时期作品而知名的摄影师史密斯在1971年本已隐居,但受Life杂志编辑Ralph Graves委托,他再次拿起相机,去日本记录因汞污染引起的震惊全球的怪病“水俣病”现状,和政府所做的掩盖。当时该事件已进入确定责任阶段,受害者与企业谈判中。

影片参数
  1. Video
  2. ID : 1
  3. Format : AVC
  4. Format/Info : Advanced Video Codec
  5. Format profile : [email protected]
  6. Format settings : CABAC / 4 Ref Frames
  7. Format settings, CABAC : Yes
  8. Format settings, Reference frames : 4 frames
  9. Codec ID : V_MPEG4/ISO/AVC
  10. Duration : 1 h 54 min
  11. Bit rate : 10.9 Mb/s
  12. Width : 1 920 pixels
  13. Height : 1 040 pixels
  14. Display aspect ratio : 1.85:1
  15. Frame rate mode : Constant
  16. Frame rate : 24.000 FPS
  17. Color space : YUV
  18. Chroma subsampling : 4:2:0
  19. Bit depth : 8 bits
  20. Scan type : Progressive
  21. Bits/(Pixel*Frame) : 0.227
  22. Stream size : 8.73 GiB (84%)
  23. Writing library : x264 core 164 r3107 a8b68eb
  24. Encoding settings : cabac=1 / ref=4 / deblock=1:-3:-3 / analyse=0x3:0x133 / me=umh / subme=9 / psy=1 / psy_rd=1.00:0.00 / mixed_ref=1 / me_range=16 / chroma_me=1 / trellis=2 / 8x8dct=1 / cqm=0 / deadzone=21,11 / fast_pskip=0 / chroma_qp_offset=-2 / threads=18 / lookahead_threads=1 / sliced_threads=0 / nr=0 / decimate=1 / interlaced=0 / bluray_compat=0 / constrained_intra=0 / bframes=3 / b_pyramid=2 / b_adapt=2 / b_bias=0 / direct=3 / weightb=1 / open_gop=0 / weightp=2 / keyint=250 / keyint_min=24 / scenecut=40 / intra_refresh=0 / rc_lookahead=60 / rc=crf / mbtree=1 / crf=14.0 / qcomp=0.60 / qpmin=0 / qpmax=69 / qpstep=4 / ip_ratio=1.40 / aq=1:1.00
  25. Language : English
  26. Default : Yes
  27. Forced : No
  28. Audio
  29. ID : 2
  30. Format : DTS XLL
  31. Format/Info : Digital Theater Systems
  32. Commercial name : DTS-HD Master Audio
  33. Codec ID : A_DTS
  34. Duration : 1 h 54 min
  35. Bit rate mode : Variable
  36. Bit rate : 2 019 kb/s
  37. Channel(s) : 6 channels
  38. Channel layout : C L R Ls Rs LFE
  39. Sampling rate : 48.0 kHz
  40. Frame rate : 93.750 FPS (512 SPF)
  41. Bit depth : 16 bits
  42. Compression mode : Lossless
  43. Stream size : 1.62 GiB (16%)
  44. Language : English
  45. Default : Yes
  46. Forced : No
  47. Text #1
  48. ID : 3
  49. Format : UTF-8
  50. Codec ID : S_TEXT/UTF8
  51. Codec ID/Info : UTF-8 Plain Text
  52. Duration : 1 h 22 min
  53. Bit rate : 9 b/s
  54. Count of elements : 163
  55. Stream size : 5.56 KiB (0%)
  56. Language : English
  57. Default : Yes
  58. Forced : Yes
  59. Text #2
  60. ID : 4
  61. Format : UTF-8
  62. Codec ID : S_TEXT/UTF8
  63. Codec ID/Info : UTF-8 Plain Text
  64. Duration : 1 h 46 min
  65. Bit rate : 39 b/s
  66. Count of elements : 1046
  67. Stream size : 31.0 KiB (0%)
  68. Language : English
  69. Default : No
  70. Forced : No
  71. Text #3
  72. ID : 5
  73. Format : PGS
  74. Muxing mode : zlib
  75. Codec ID : S_HDMV/PGS
  76. Codec ID/Info : Picture based subtitle format used on BDs/HD-DVDs
  77. Duration : 1 h 52 min
  78. Bit rate : 23.3 kb/s
  79. Count of elements : 1870
  80. Stream size : 18.8 MiB (0%)
  81. Language : Spanish
  82. Default : No
  83. Forced : No
  84. Text #4
  85. ID : 6
  86. Format : PGS
  87. Muxing mode : zlib
  88. Codec ID : S_HDMV/PGS
  89. Codec ID/Info : Picture based subtitle format used on BDs/HD-DVDs
  90. Duration : 1 h 52 min
  91. Bit rate : 22.1 kb/s
  92. Count of elements : 1870
  93. Stream size : 17.8 MiB (0%)
  94. Language : Catalan
  95. Default : No
  96. Forced : No
  97. Text #5
  98. ID : 7
  99. Format : PGS
  100. Muxing mode : zlib
  101. Codec ID : S_HDMV/PGS
  102. Codec ID/Info : Picture based subtitle format used on BDs/HD-DVDs
  103. Duration : 1 h 52 min
  104. Bit rate : 6 829 b/s
  105. Count of elements : 514
  106. Stream size : 5.52 MiB (0%)
  107. Language : Spanish
  108. Default : No
  109. Forced : No
  110. Menu
  111. 00:00:00.000 : en:Chapter 01
  112. 00:10:10.375 : en:Chapter 02
  113. 00:19:12.208 : en:Chapter 03
  114. 00:27:45.625 : en:Chapter 04
  115. 00:37:12.792 : en:Chapter 05
  116. 00:49:44.125 : en:Chapter 06
  117. 00:59:12.042 : en:Chapter 07
  118. 01:07:58.375 : en:Chapter 08
  119. 01:18:19.417 : en:Chapter 09
  120. 01:26:51.208 : en:Chapter 10
  121. 01:35:47.833 : en:Chapter 11
  122. 01:43:54.750 : en:Chapter 12
复制代码

水俣病.Minamata.2020.1080p.BluRay.x264-KNiVES 10.38GB

水俣病.Minamata.2020.1080p.BluRay.x264-KNiVES 10.38GB



蓝光高清网提示您 点击下方附件即可下载

水俣病.Minamata.2020.1080p.BluRay.x264-KNiVES 10.38GB

Minamata.2020.1080p.BluRay.x264-KNiVES.torrent ( 13.7 KB )

加入蓝光高清网VIP会员  无限制下载本站所有资源---点这里

资源下载、资源播放、字幕使用、无法下载等常见问题---点这里
回复

使用道具 举报

全部回复0 显示全部楼层

发表回复

您需要登录后才可以回帖 登录 | 立即注册

本版积分规则

开通会员 帮助中心 返回顶部 返回列表