本站已运行

蓝光高清网

搜索

[喜剧] 雷霆沙赞!众神之怒.Shazam.Fury.of.the.Gods.2023.1080p.BluRay.x264-PiGNUS 14.93GB

蓝鸟 发表于 2023-5-20 10:07:56 | 显示全部楼层 |阅读模式

雷霆沙赞!众神之怒.Shazam.Fury.of.the.Gods.2023.1080p.BluRay.x264-PiGNUS 14.93GB

雷霆沙赞!众神之怒.Shazam.Fury.of.the.Gods.2023.1080p.BluRay.x264-PiGNUS 14.93GB


译  名 雷霆沙赞!众神之怒 / 沙贊!眾神之怒(台) / 雷霆沙赞2 / 沙赞2 / 神奇上尉2 / 奇迹队长2 / Shazam! 2
片  名 Shazam! Fury of the Gods
年  代 2023
产  地 美国
类  别 喜剧 / 动作 / 奇幻 / 冒险
语  言 英语
上映日期 2023-03-15(澳大利亚) / 2023-03-17(美国/中国大陆)
IMDb评星  ★★★★★★☆☆☆☆
IMDb评分  6.0/10 from 67,593 users
豆瓣评星 ★★★☆☆
豆瓣评分 5.5/10 from 44,179 users
片  长 130分钟
导  演 大卫·F·桑德伯格 / David F. Sandberg
演  员 扎克瑞·莱维 / Zachary Levi | 饰 沙赞 / 比利·巴特森 Shazam / Billy Batson
      亚瑟·安其 / Asher Angel | 饰 比利·巴特森 Billy Batson
      杰克·迪伦·格雷泽 / Jack Dylan Grazer | 饰 弗莱迪·弗里曼 Freddy Freeman
      海伦·米伦 / Helen Mirren | 饰 赫斯佩拉 Hespera
      刘玉玲 / Lucy Liu | 饰 卡吕普索 Kalypso
      瑞秋·齐格勒 / Rachel Zegler | 饰 安西娅 Anthea
      杰曼·翰苏 / Djimon Hounsou | 饰 巫师 The Wizard
      盖尔·加朵 / Gal Gadot | 饰 神奇女侠 Wonder Woman
      亚当·布罗迪 / Adam Brody | 饰 沙赞弗莱迪 / 弗莱迪 Freddy / Super Hero Freddy
      格雷斯·卡罗琳·柯里 / Grace Caroline Currey | 饰 沙赞玛丽 / 玛丽·布罗姆费尔德 Super Hero Mary / Mary Bromfield
      梅根·古德 / Meagan Good | 饰 沙赞达拉 / 达拉 Super Hero Darla / Darla
      罗斯·巴特勒 / Ross Butler | 饰 沙赞尤金 / 尤金 Super Hero Eugene / Eugene
      D·J·科特罗纳 / D.J. Cotrona | 饰 沙赞佩德罗 / 佩德罗 Super Hero Pedro / Pedro
      玛尔塔·米兰斯 / Marta Milans | 饰 罗莎·瓦斯奎兹 Rosa Vasquez
      库珀·安德鲁斯 / Cooper Andrews | 饰 维克多·瓦斯奎兹 Victor Vasquez
      约万·阿曼德 / Jovan Armand | 饰 佩德罗·佩尼亚 Pedro Pena
      陈琦烨 / Ian Chen | 饰 尤金·崔 Eugene Choi
      费滋·赫尔曼 / Faithe Herman | 饰 达拉·杜得力 Darla Dudley
      戴德里克·巴德 / Diedrich Bader | 饰 盖可老师 Mr. Geckle
      P·J·伯恩 / P.J. Byrne | 饰 儿科医生 Dr. Dario Bava
      里兹万·曼吉 / Rizwan Manji | 饰 博物馆讲解员 Docent
      詹尼佛·霍兰德 / Jennifer Holland | 饰 Emilia Harcourt
      史蒂夫·阿吉 / Steve Agee | 饰 John Economos
      马克·斯特朗 / Mark Strong | 饰 赛迪斯·希瓦纳博士 Dr. Thaddeus Sivana
      大卫·F·桑德伯格 / David F. Sandberg | 配 冥思螨 Mister Mind
      洛塔·洛斯滕 / Lotta Losten | 饰 Nurse in Need of a Hero
      德里克·罗素 / Derek Russo | 饰 Atlas
      艾比·格洛弗 / Abby Glover | 饰 Drunk Girl
      马克·德米特 / Marc Demeter | 饰 Citizen
      迈克尔·马里奥·古德 / Michael Mario Good | 饰 Dad Playing Catch
      贾迈尔·钱伯斯 / Jamel Chambers | 饰 Street Runner
      布莱德利·瑞安·奈斯贝尔 / Bradley Ryan Knispel | 饰 Student / Party Goer
      大卫·伦格尔 / David Lengel | 饰 Museum Security Guard
      罗伯特·廷斯利 / Robert Tinsley | 饰 Citizen / Police Officer
      希拉里·哈利 / Hillary Harley | 饰 Kitten Car Passenger #1
      泰勒·卡希尔 / Taylor Cahill | 饰 Fake Wonder Woman
编  剧 亨利·盖登 / Henry Gayden
      克里斯·摩根 / Chris Morgan
      比尔·帕克 / Bill Parker
      C·C·贝克 / C.C. Beck
制  片  人 彼得·萨夫兰 / Peter Safran
      沃尔特·滨田 / Walter Hamada
      乔夫·琼斯 / Geoff Johns
      Marcus Viscidi Marcus Viscidi
音  乐 克里斯托弗·贝克 / Christophe Beck
摄  影 阿曼达·L·阿金斯 / Amanda L. Akins
      尼克·安德森 / Nick Anderson
      乔什·比尔登 / Josh Bearden
      Gyula Pados Gyula Pados
美  术 保罗·卡比 / Paul Kirby
动作特技 吉米·丘伊 / Jimmy Chhiu

简  介

比利·巴特森和其他孩子们虽然获得了超凡的神力和成人的外表,但仍处在青春期的他们还在学习如何平衡内心与外在的不同。但是当阿特拉斯的女儿——复仇三女神来到地球,寻找很久以前被偷走的神力时,比利·巴特森和家人们将为了守护他们的超能力、生命以及整个世界的命运而展开一场激战。

影片参数
  1. Video
  2. ID : 1
  3. Format : AVC
  4. Format/Info : Advanced Video Codec
  5. Format profile : [email protected]
  6. Format settings : CABAC / 5 Ref Frames
  7. Format settings, CABAC : Yes
  8. Format settings, Reference frames : 5 frames
  9. Codec ID : V_MPEG4/ISO/AVC
  10. Duration : 2 h 10 min
  11. Bit rate : 12.8 Mb/s
  12. Width : 1 920 pixels
  13. Height : 804 pixels
  14. Display aspect ratio : 2.40:1
  15. Frame rate mode : Constant
  16. Frame rate : 23.976 (24000/1001) FPS
  17. Color space : YUV
  18. Chroma subsampling : 4:2:0
  19. Bit depth : 8 bits
  20. Scan type : Progressive
  21. Bits/(Pixel*Frame) : 0.345
  22. Stream size : 11.6 GiB (78%)
  23. Writing library : x264 core 164 r3107 a8b68eb
  24. Encoding settings : cabac=1 / ref=5 / deblock=1:-3:-3 / analyse=0x3:0x133 / me=umh / subme=9 / psy=1 / psy_rd=1.00:0.00 / mixed_ref=1 / me_range=16 / chroma_me=1 / trellis=2 / 8x8dct=1 / cqm=0 / deadzone=21,11 / fast_pskip=1 / chroma_qp_offset=-2 / threads=24 / lookahead_threads=2 / sliced_threads=0 / nr=0 / decimate=1 / interlaced=0 / bluray_compat=0 / constrained_intra=0 / bframes=3 / b_pyramid=2 / b_adapt=2 / b_bias=0 / direct=3 / weightb=1 / open_gop=0 / weightp=2 / keyint=250 / keyint_min=23 / scenecut=40 / intra_refresh=0 / rc_lookahead=60 / rc=crf / mbtree=1 / crf=15.0 / qcomp=0.60 / qpmin=0 / qpmax=69 / qpstep=4 / ip_ratio=1.40 / aq=1:1.00
  25. Default : Yes
  26. Forced : No
  27. Audio #1
  28. ID : 2
  29. Format : MLP FBA 16-ch
  30. Format/Info : Meridian Lossless Packing FBA with 16-channel presentation
  31. Commercial name : Dolby TrueHD with Dolby Atmos
  32. Codec ID : A_TRUEHD
  33. Duration : 2 h 10 min
  34. Bit rate mode : Variable
  35. Bit rate : 2 983 kb/s
  36. Maximum bit rate : 5 112 kb/s
  37. Channel(s) : 8 channels
  38. Channel layout : L R C LFE Ls Rs Lb Rb
  39. Sampling rate : 48.0 kHz
  40. Frame rate : 1 200.000 FPS (40 SPF)
  41. Compression mode : Lossless
  42. Stream size : 2.71 GiB (18%)
  43. Language : English
  44. Default : Yes
  45. Forced : No
  46. Number of dynamic objects : 11
  47. Bed channel count : 1 channel
  48. Bed channel configuration : LFE
  49. Audio #2
  50. ID : 3
  51. Format : AC-3
  52. Format/Info : Audio Coding 3
  53. Commercial name : Dolby Digital
  54. Codec ID : A_AC3
  55. Duration : 2 h 10 min
  56. Bit rate mode : Constant
  57. Bit rate : 448 kb/s
  58. Channel(s) : 6 channels
  59. Channel layout : L R C LFE Ls Rs
  60. Sampling rate : 48.0 kHz
  61. Frame rate : 31.250 FPS (1536 SPF)
  62. Compression mode : Lossy
  63. Stream size : 417 MiB (3%)
  64. Language : English
  65. Service kind : Complete Main
  66. Default : Yes
  67. Forced : No
  68. Audio #3
  69. ID : 4
  70. Format : AAC LC
  71. Format/Info : Advanced Audio Codec Low Complexity
  72. Codec ID : A_AAC-2
  73. Duration : 2 h 10 min
  74. Bit rate : 108 kb/s
  75. Channel(s) : 2 channels
  76. Channel layout : L R
  77. Sampling rate : 48.0 kHz
  78. Frame rate : 46.875 FPS (1024 SPF)
  79. Compression mode : Lossy
  80. Delay relative to video : 9 ms
  81. Stream size : 100 MiB (1%)
  82. Title : Commentary
  83. Language : English
  84. Default : No
  85. Forced : No
  86. Text #1
  87. ID : 5
  88. Format : PGS
  89. Muxing mode : zlib
  90. Codec ID : S_HDMV/PGS
  91. Codec ID/Info : Picture based subtitle format used on BDs/HD-DVDs
  92. Duration : 2 h 9 min
  93. Bit rate : 42.8 kb/s
  94. Count of elements : 4744
  95. Stream size : 39.7 MiB (0%)
  96. Title : English SDH
  97. Language : English
  98. Default : No
  99. Forced : No
  100. Text #2
  101. ID : 6
  102. Format : PGS
  103. Muxing mode : zlib
  104. Codec ID : S_HDMV/PGS
  105. Codec ID/Info : Picture based subtitle format used on BDs/HD-DVDs
  106. Duration : 2 h 9 min
  107. Bit rate : 25.9 kb/s
  108. Count of elements : 3066
  109. Stream size : 23.9 MiB (0%)
  110. Title : French
  111. Language : French
  112. Default : No
  113. Forced : No
  114. Text #3
  115. ID : 7
  116. Format : PGS
  117. Muxing mode : zlib
  118. Codec ID : S_HDMV/PGS
  119. Codec ID/Info : Picture based subtitle format used on BDs/HD-DVDs
  120. Duration : 2 h 8 min
  121. Bit rate : 32.5 kb/s
  122. Count of elements : 3418
  123. Stream size : 30.0 MiB (0%)
  124. Title : Spanish
  125. Language : Spanish
  126. Default : No
  127. Forced : No
  128. Text #4
  129. ID : 8
  130. Format : PGS
  131. Muxing mode : zlib
  132. Codec ID : S_HDMV/PGS
  133. Codec ID/Info : Picture based subtitle format used on BDs/HD-DVDs
  134. Duration : 1 h 47 min
  135. Bit rate : 475 b/s
  136. Count of elements : 34
  137. Stream size : 375 KiB (0%)
  138. Title : French
  139. Language : French
  140. Default : No
  141. Forced : No
  142. Text #5
  143. ID : 9
  144. Format : PGS
  145. Muxing mode : zlib
  146. Codec ID : S_HDMV/PGS
  147. Codec ID/Info : Picture based subtitle format used on BDs/HD-DVDs
  148. Duration : 1 h 40 min
  149. Bit rate : 1 096 b/s
  150. Count of elements : 64
  151. Stream size : 809 KiB (0%)
  152. Title : Spanish
  153. Language : Spanish
  154. Default : No
  155. Forced : No
  156. Menu
  157. 00:00:00.000 : en:Chapter 01
  158. 00:09:53.009 : en:Chapter 02
  159. 00:19:34.965 : en:Chapter 03
  160. 00:25:45.294 : en:Chapter 04
  161. 00:33:57.744 : en:Chapter 05
  162. 00:43:35.696 : en:Chapter 06
  163. 00:50:57.596 : en:Chapter 07
  164. 00:57:31.698 : en:Chapter 08
  165. 01:06:40.997 : en:Chapter 09
  166. 01:16:40.346 : en:Chapter 10
  167. 01:19:10.287 : en:Chapter 11
  168. 01:28:51.785 : en:Chapter 12
  169. 01:35:34.270 : en:Chapter 13
  170. 01:43:02.468 : en:Chapter 14
  171. 01:50:37.923 : en:Chapter 15
  172. 01:57:19.783 : en:Chapter 16
  173. 02:08:33.998 : en:Chapter 17
  174. 02:10:15.224 : en:Chapter 18
复制代码

雷霆沙赞!众神之怒.Shazam.Fury.of.the.Gods.2023.1080p.BluRay.x264-PiGNUS 14.93GB

雷霆沙赞!众神之怒.Shazam.Fury.of.the.Gods.2023.1080p.BluRay.x264-PiGNUS 14.93GB



蓝光高清网提示您 点击下方附件即可下载

雷霆沙赞!众神之怒.Shazam.Fury.of.the.Gods.2023.1080p.BluRay.x264-PiGNUS 14.93GB

Shazam.Fury.of.the.Gods.2023.1080p.BluRay.x264-PiGNUS.torrent ( 19.42 KB )

加入蓝光高清网VIP会员  无限制下载本站所有资源---点这里

资源下载、资源播放、字幕使用、无法下载等常见问题---点这里
回复

使用道具 举报

全部回复1 显示全部楼层
北回归线 发表于 2023-5-20 19:08:53 | 显示全部楼层
感谢分享
回复

使用道具 举报

发表回复

您需要登录后才可以回帖 登录 | 立即注册

本版积分规则

开通会员 帮助中心 返回顶部 返回列表