本站已运行

蓝光高清网

搜索

[香港] Beyond The Story Live 2005香港红馆演唱会[DTS-ES 5.1+DD EX 5.1+DD2.0+Karaoke DD2.0][简繁中字][选曲章节][含Bonus].Beyond.The.Story.Live.2005.DVDRip.x264.DTS.3Audios-CMCT 8.98GB

蓝鸟 发表于 2024-1-30 10:22:48 | 显示全部楼层 |阅读模式
写在前面:
1. 双碟DVDISO合并输出,全切不规则黑边,分辨率调整至720x540p;双碟DVD原盘提取全码DTS-ES 5.1 1509kbps(原声)&DD EX 5.1 448kbps(原声),未转制其他制式,需设备支持,此外还保留原盘第三条DD2.0-192kbps原声备选,增加完整选曲章节;
2. 碟三卡拉OK盘一并制作独立mkv,自带内嵌卡拉OK中字,DD2.0-192kbps(原声)&DD2.0-192kbps(Karaoke)直封,同样增加完整选曲章节;
3. 直封ASS主字幕取自取自DVD原盘OCR,鄙人完成校对,整合时间轴匹配;
4. BONUS TRACK两条全部Rip保留独立mkv文件;
5. 相关参数:subme=11 crf=18 ;相关滤镜:QTGMC

Beyond The Story Live 2005香港红馆演唱会[DTS-ES 5.1+DD EX 5.1+DD2.0+Karaoke DD2.0][简繁中字][选曲章 ...

Beyond The Story Live 2005香港红馆演唱会[DTS-ES 5.1+DD EX 5.1+DD2.0+Karaoke DD2.0][简繁中字][选曲章 ...


  Dolby EX 6.1 数码环回立体音效 震撼澎湃
DISC 1
02. 再见理想
04. 赤红热血
06. 我是愤怒
08. 逝去日子
10. 愿我能
12. 情人
14. 遥远的PARADISE
DISC 2
02. 困兽斗
04. 请将手放开
06. 抗战二十年
08. 农民
10. 内心说话
12. AMANI
14. 总有爱

BEYOND+太极:红色跑车
DISC 3
3DVD超完美收录
临别时到依依不舍,映像9记录 -The Story Live Moments


  • 文件名:Beyond.The.Story.Live.2005.DVDRip.x264.DTS.3Audios-CMCT.mkv
  •     Beyond.The.Story.Live.Karaoke.2005.DVDRip.x264.AC3.2Audios-CMCT.mkv
  •     BEYOND&太极:红色跑车.DVDRip.x264.AC3-CMCT.mkv
  •     THE.STORY.LIVE.MOMENTS.DVDRip.x264.AC3-CMCT.mkv
  • 日 期:2019-4-7
  • 体 积:8.98GB
  • 时 长:02:24:11
  • 片 源:Beyond The Story Live 2005(3 disc) [ISO]
  • 帧 率:29.970fps
  • 参 数:me=umh subme=11
  • 分辨率:720 x 540 (4:3)
  • 视 频:x264 @ 2796 Kbps
  • 音 频:DTS-ES 5.1 @ 1509 Kbps (原声)
  •     AC3 EX 5.1 @ 448 Kbps (原声)
  •     AC3 2.0 @ 192 Kbps (原声)
  •     AC3 2.0 @ 192 Kbps (Karaoke)[独立mkv搭配内嵌卡拉OK中字]
  • 字 幕:简体ASS/繁体ASS/简体中字/卡拉OK中字
  • 字幕源:DVD原盘OCR
  • 压 制:小鱼@CMCT
  • 调 校:小鱼@CMCT



Video
ID : 1
Format : AVC
Format/Info : Advanced Video Codec
Format profile : High@L4.1
Format settings : CABAC / 9 Ref Frames
Format settings, CABAC : Yes
Format settings, RefFrames : 9 frames
Codec ID : V_MPEG4/ISO/AVC
Duration : 2 h 24 min
Bit rate : 2 796 kb/s
Width : 720 pixels
Height : 540 pixels
Display aspect ratio : 4:3
Frame rate mode : Constant
Frame rate : 29.970 (30000/1001) FPS
Color space : YUV
Chroma subsampling : 4:2:0
Bit depth : 8 bits
Scan type : Progressive
Bits/(Pixel*Frame) : 0.240
Stream size : 2.82 GiB (56%)
Title : Encoded.by.小鱼@CMCT
Writing library : x264 core 157 r2935 545de2f
Encoding settings : cabac=1 / ref=9 / deblock=1:-3:-3 / analyse=0x3:0x133 / me=umh / subme=11 / psy=1 / psy_rd=1.00:0.00 / mixed_ref=1 / me_range=48 / chroma_me=1 / trellis=2 / 8x8dct=1 / cqm=0 / deadzone=21,11 / fast_pskip=0 / chroma_qp_offset=-2 / threads=12 / lookahead_threads=1 / sliced_threads=0 / nr=0 / decimate=1 / interlaced=0 / bluray_compat=0 / constrained_intra=0 / bframes=6 / b_pyramid=2 / b_adapt=2 / b_bias=0 / direct=1 / weightb=1 / open_gop=0 / weightp=2 / keyint=300 / keyint_min=27 / scenecut=40 / intra_refresh=0 / rc_lookahead=60 / rc=crf / mbtree=1 / crf=18.0 / qcomp=0.60 / qpmin=0 / qpmax=69 / qpstep=4 / vbv_maxrate=50000 / vbv_bufsize=62500 / crf_max=0.0 / nal_hrd=none / filler=0 / ip_ratio=1.40 / aq=1:1.00
Default : Yes
Forced : No

Audio #1
ID : 2
Format : DTS
Format/Info : Digital Theater Systems
Format profile : ES Matrix / Core
Mode : 16
Format settings, Endianness : Big
Codec ID : A_DTS
Duration : 2 h 24 min
Bit rate mode : Constant
Bit rate : 1 510 kb/s
Channel(s) : 7 channels / 6 channels
Channel positions : Front: L C R, Side: L R, Back: C, LFE / Front: L C R, Side: L R, LFE
Sampling rate : 48.0 kHz
Frame rate : 93.750 FPS (512 SPF)
Bit depth : 16 bits
Compression mode : Lossy
Stream size : 1.52 GiB (30%)
Title : 原声, DTS-ES, 5.1 channels, 1510kbps, 48kHz
Language : Chinese
Default : Yes
Forced : No

Audio #2
ID : 3
Format : AC-3
Format/Info : Audio Coding 3
Format settings, Endianness : Big
Codec ID : A_AC3
Duration : 2 h 24 min
Bit rate mode : Constant
Bit rate : 448 kb/s
Channel(s) : 6 channels
Channel positions : Front: L C R, Side: L R, LFE
Sampling rate : 48.0 kHz
Frame rate : 31.250 FPS (1536 SPF)
Bit depth : 16 bits
Compression mode : Lossy
Stream size : 462 MiB (9%)
Title : 原声, AC3 EX, 5.1 channels, 448kbps, 48kHz
Language : Chinese
Service kind : Complete Main
Default : No
Forced : No

Audio #3
ID : 4
Format : AC-3
Format/Info : Audio Coding 3
Format settings, Endianness : Big
Codec ID : A_AC3
Duration : 2 h 24 min
Bit rate mode : Constant
Bit rate : 192 kb/s
Channel(s) : 2 channels
Channel positions : Front: L R
Sampling rate : 48.0 kHz
Frame rate : 31.250 FPS (1536 SPF)
Bit depth : 16 bits
Compression mode : Lossy
Stream size : 198 MiB (4%)
Title : 原声, AC3, 2.0 channels, 192kbps, 48kHz
Language : Chinese
Service kind : Complete Main
Default : No
Forced : No

Text #1
ID : 5
Format : ASS
Codec ID : S_TEXT/ASS
Codec ID/Info : Advanced Sub Station Alpha
Duration : 2 h 16 min
Bit rate : 66 b/s
Count of elements : 1147
Compression mode : Lossless
Stream size : 66.8 KiB (0%)
Title : 简体ASS
Language : Chinese
Default : Yes
Forced : No

Text #2
ID : 6
Format : ASS
Codec ID : S_TEXT/ASS
Codec ID/Info : Advanced Sub Station Alpha
Duration : 2 h 16 min
Bit rate : 66 b/s
Count of elements : 1147
Compression mode : Lossless
Stream size : 66.8 KiB (0%)
Title : 繁体ASS
Language : Chinese
Default : No
Forced : No

Text #3
ID : 7
Format : UTF-8
Codec ID : S_TEXT/UTF8
Codec ID/Info : UTF-8 Plain Text
Duration : 2 h 16 min
Bit rate : 24 b/s
Count of elements : 1147
Stream size : 24.2 KiB (0%)
Title : 简体中字
Language : Chinese
Default : No
Forced : No

Menu
00:00:00.066 : zh:01. 永远等待
00:06:41.067 : zh:02. 再见理想
00:11:30.756 : zh:03. 亚拉伯跳舞女郎
00:15:23.289 : zh:04. 赤红热血
00:19:07.880 : zh:05. 爸爸妈妈
00:22:41.393 : zh:06. 我是愤怒
00:26:41.132 : zh:07. 岁月无声
00:30:42.473 : zh:08. 逝去日子
00:34:33.738 : zh:09. 谁伴我闯荡
00:38:58.703 : zh:10. 愿我能
00:43:30.774 : zh:11. 遥望
00:48:55.599 : zh:12. 情人
00:54:16.319 : zh:13. 海阔天空
01:00:07.270 : zh:14. 遥远的PARADISE
01:05:03.266 : zh:15. 祝您愉快
01:10:18.907 : zh:16. 无事无事
01:14:07.537 : zh:17. 困兽斗
01:17:05.717 : zh:18. 醒你
01:23:08.977 : zh:19. 请将手放开
01:27:16.827 : zh:20. 不见不散
01:33:08.247 : zh:21. 抗战二十年
01:37:29.607 : zh:22. 长空
01:43:23.657 : zh:23. 农民
01:48:08.277 : zh:24. 追忆
01:52:29.137 : zh:25. 内心说话
01:56:21.397 : zh:26. 真的爱你
02:01:04.087 : zh:27. AMANI
02:06:34.447 : zh:28. 光辉岁月
02:12:38.307 : zh:29. 总有爱


Beyond The Story Live 2005香港红馆演唱会[DTS-ES 5.1+DD EX 5.1+DD2.0+Karaoke DD2.0][简繁中字][选曲章节][含Bonus].Beyond.The.Story.Live.2005.DVDRip.x264.DTS.3Audios-CMCT 8.98GB

Beyond.The.Story.Live.2005.粤语.简繁中字£CMCT小鱼.torrent ( 23.79 KB )

加入蓝光高清网VIP会员  无限制下载本站所有资源---点这里

资源下载、资源播放、字幕使用、无法下载等常见问题---点这里
回复

使用道具 举报

全部回复4 显示全部楼层
默池手机认证 发表于 2024-1-30 13:01:11 | 显示全部楼层
很喜欢  感谢分享
回复 支持 反对

使用道具 举报

ggang1 发表于 2024-1-30 15:36:36 | 显示全部楼层
谢谢楼主的分享!
回复 支持 反对

使用道具 举报

wrs123手机认证 发表于 2024-1-31 07:55:13 | 显示全部楼层
每日签到,领取奖励,记录点滴,成为签到达人!
回复 支持 反对

使用道具 举报

ggang1 发表于 2024-1-31 12:45:12 | 显示全部楼层
谢谢楼主的分享!
回复 支持 反对

使用道具 举报

发表回复

您需要登录后才可以回帖 登录 | 立即注册

本版积分规则

开通会员 帮助中心 返回顶部 返回列表