本站已运行

蓝光高清网

搜索

三十极夜2:黑暗的日子4k.30.Days.Of.Night.Dark.Days.2010.2160p.Ai-Upscaled.10bit.H265.DTS-HD.MA.5.1-4k电影下载

蓝鸟 发表于 2024-2-8 16:17:57 | 显示全部楼层 |阅读模式
三十极夜2:黑暗的日子 (2010) 豆瓣评分: 4.8分
时长:92 分钟
地区:美国 
类型:恐怖 
画质:4K 
帧率:24FPS
音轨:DTS-HD.MA 5.1 
导演:本·科泰
主演:基拉·桑切斯 / 瑞斯·考罗 / 迪奥拉·拜尔德 / 哈罗德·佩里诺 / 米娅·科施娜
  • 电影下载
  • 影片简介
  • 影片参数
  • 下载说明
  • 《三十极夜2:黑暗的日子》网盘资源  Cloud storage download
    暂未提供


    访问密码
      
    中文字幕


    《三十极夜2:黑暗的日子》BT 下载 推荐使用【迅雷云盘离线下载】【比特彗星】下载
  • 《三十极夜2:黑暗的日子》剧情简介 Film Introduction
      在上一集后,女主角Stella离开阿拉斯加最北小镇巴罗(Barrow),前往洛杉矶,并告诉世人那里发生的恐怖事件。她的旅行引起了当地温暖气候下的女吸血鬼们的愤怒,Stella从此得知可能有一种办法可以救活被杀死的丈夫Eben。


    《三十极夜2:黑暗的日子》BT 下载 推荐使用【迅雷云盘离线下载】【比特彗星】下载
  • 《三十极夜2:黑暗的日子》影片INFO Video INFO
    Video
    ID : 1
    Format : HEVC
    Format/Info : High Efficiency Video Coding
    Format profile : Main 10@L5.1@Main
    Codec ID : V_MPEGH/ISO/HEVC
    Duration : 1 h 32 min
    Bit rate : 23.1 Mb/s
    Width : 3 840 pixels
    Height : 2 144 pixels
    Display aspect ratio : 16:9
    Frame rate mode : Variable
    Frame rate : 59.940 FPS
    Original frame rate : 59.524 FPS
    Color space : YUV
    Chroma subsampling : 4:2:0
    Bit depth : 10 bits
    Bits/(Pixel*Frame) : 0.047
    Time code of first frame : 00:59:58:30
    Stream size : 14.9 GiB (88%)
    Default : No
    Forced : No
    Color range : Limited
    Matrix coefficients : BT.709

    Audio #1
    ID : 2
    Format : DTS XLL
    Format/Info : Digital Theater Systems
    Commercial name : DTS-HD Master Audio
    Codec ID : A_DTS
    Duration : 1 h 32 min
    Bit rate mode : Variable
    Bit rate : 2 792 kb/s
    Channel(s) : 6 channels
    Channel layout : C L R Ls Rs LFE
    Sampling rate : 48.0 kHz
    Frame rate : 93.750 FPS (512 SPF)
    Bit depth : 24 bits
    Compression mode : Lossless
    Stream size : 1.80 GiB (11%)
    Title : DTS-HD Master Audio / 5.1 / 48 kHz / 2792 kbps / 24-bit
    Language : English
    Default : Yes
    Forced : No

    Audio #2
    ID : 3
    Format : AC-3
    Format/Info : Audio Coding 3
    Commercial name : Dolby Digital
    Format settings : Dolby Surround
    Codec ID : A_AC3
    Duration : 1 h 32 min
    Bit rate mode : Constant
    Bit rate : 192 kb/s
    Channel(s) : 2 channels
    Channel layout : L R
    Sampling rate : 48.0 kHz
    Frame rate : 31.250 FPS (1536 SPF)
    Bit depth : 32 bits
    Compression mode : Lossy
    Stream size : 127 MiB (1%)
    Title : Commentary with Director Ben Ketai
    Language : English
    Service kind : Complete Main
    Default : No
    Forced : No

    Text #1
    ID : 4
    Format : PGS
    Muxing mode : zlib
    Codec ID : S_HDMV/PGS
    Codec ID/Info : Picture based subtitle format used on BDs/HD-DVDs
    Duration : 32 min 40 s
    Bit rate : 563 b/s
    Frame rate : 0.008 FPS
    Count of elements : 16
    Stream size : 135 KiB (0%)
    Title : Forced
    Language : English
    Default : Yes
    Forced : Yes

    Text #2
    ID : 5
    Format : PGS
    Muxing mode : zlib
    Codec ID : S_HDMV/PGS
    Codec ID/Info : Picture based subtitle format used on BDs/HD-DVDs
    Duration : 1 h 27 min
    Bit rate : 13.9 kb/s
    Frame rate : 0.231 FPS
    Count of elements : 1218
    Stream size : 8.76 MiB (0%)
    Language : English
    Default : No
    Forced : No

    Text #3
    ID : 6
    Format : PGS
    Muxing mode : zlib
    Codec ID : S_HDMV/PGS
    Codec ID/Info : Picture based subtitle format used on BDs/HD-DVDs
    Duration : 1 h 28 min
    Bit rate : 12.0 kb/s
    Frame rate : 0.289 FPS
    Count of elements : 1531
    Stream size : 7.59 MiB (0%)
    Title : SDH
    Language : English
    Default : No
    Forced : No

    Text #4
    ID : 7
    Format : PGS
    Muxing mode : zlib
    Codec ID : S_HDMV/PGS
    Codec ID/Info : Picture based subtitle format used on BDs/HD-DVDs
    Duration : 1 h 31 min
    Bit rate : 7 653 b/s
    Frame rate : 0.227 FPS
    Count of elements : 1244
    Stream size : 5.01 MiB (0%)
    Language : Arabic
    Default : No
    Forced : No

    Text #5
    ID : 8
    Format : PGS
    Muxing mode : zlib
    Codec ID : S_HDMV/PGS
    Codec ID/Info : Picture based subtitle format used on BDs/HD-DVDs
    Duration : 1 h 27 min
    Bit rate : 13.7 kb/s
    Frame rate : 0.232 FPS
    Count of elements : 1224
    Stream size : 8.59 MiB (0%)
    Language : Danish
    Default : No
    Forced : No

    Text #6
    ID : 9
    Format : PGS
    Muxing mode : zlib
    Codec ID : S_HDMV/PGS
    Codec ID/Info : Picture based subtitle format used on BDs/HD-DVDs
    Duration : 1 h 27 min
    Bit rate : 11.2 kb/s
    Frame rate : 0.191 FPS
    Count of elements : 1008
    Stream size : 7.07 MiB (0%)
    Language : Dutch
    Default : No
    Forced : No

    Text #7
    ID : 10
    Format : PGS
    Muxing mode : zlib
    Codec ID : S_HDMV/PGS
    Codec ID/Info : Picture based subtitle format used on BDs/HD-DVDs
    Duration : 1 h 31 min
    Bit rate : 47.2 kb/s
    Frame rate : 0.535 FPS
    Count of elements : 2942
    Stream size : 30.9 MiB (0%)
    Title : SDH
    Language : Dutch
    Default : No
    Forced : No

    Text #8
    ID : 11
    Format : PGS
    Muxing mode : zlib
    Codec ID : S_HDMV/PGS
    Codec ID/Info : Picture based subtitle format used on BDs/HD-DVDs
    Duration : 1 h 31 min
    Bit rate : 13.3 kb/s
    Frame rate : 0.190 FPS
    Count of elements : 1042
    Stream size : 8.71 MiB (0%)
    Language : Finnish
    Default : No
    Forced : No

    Text #9
    ID : 12
    Format : PGS
    Muxing mode : zlib
    Codec ID : S_HDMV/PGS
    Codec ID/Info : Picture based subtitle format used on BDs/HD-DVDs
    Duration : 1 h 31 min
    Bit rate : 12.4 kb/s
    Frame rate : 0.218 FPS
    Count of elements : 1198
    Stream size : 8.09 MiB (0%)
    Language : French
    Default : No
    Forced : No

    Text #10
    ID : 13
    Format : PGS
    Muxing mode : zlib
    Codec ID : S_HDMV/PGS
    Codec ID/Info : Picture based subtitle format used on BDs/HD-DVDs
    Duration : 1 h 31 min
    Bit rate : 45.9 kb/s
    Frame rate : 0.526 FPS
    Count of elements : 2892
    Stream size : 30.1 MiB (0%)
    Title : SDH
    Language : French
    Default : No
    Forced : No

    Text #11
    ID : 14
    Format : PGS
    Muxing mode : zlib
    Codec ID : S_HDMV/PGS
    Codec ID/Info : Picture based subtitle format used on BDs/HD-DVDs
    Duration : 1 h 31 min
    Bit rate : 15.2 kb/s
    Frame rate : 0.226 FPS
    Count of elements : 1242
    Stream size : 9.92 MiB (0%)
    Language : German
    Default : No
    Forced : No

    Text #12
    ID : 15
    Format : PGS
    Muxing mode : zlib
    Codec ID : S_HDMV/PGS
    Codec ID/Info : Picture based subtitle format used on BDs/HD-DVDs
    Duration : 1 h 31 min
    Bit rate : 55.5 kb/s
    Frame rate : 0.534 FPS
    Count of elements : 2936
    Stream size : 36.4 MiB (0%)
    Title : SDH
    Language : German
    Default : No
    Forced : No

    Text #13
    ID : 16
    Format : PGS
    Muxing mode : zlib
    Codec ID : S_HDMV/PGS
    Codec ID/Info : Picture based subtitle format used on BDs/HD-DVDs
    Duration : 1 h 31 min
    Bit rate : 13.0 kb/s
    Frame rate : 0.227 FPS
    Count of elements : 1244
    Stream size : 8.50 MiB (0%)
    Language : Hindi
    Default : No
    Forced : No

    Text #14
    ID : 17
    Format : PGS
    Muxing mode : zlib
    Codec ID : S_HDMV/PGS
    Codec ID/Info : Picture based subtitle format used on BDs/HD-DVDs
    Duration : 1 h 27 min
    Bit rate : 14.3 kb/s
    Frame rate : 0.236 FPS
    Count of elements : 1244
    Stream size : 9.00 MiB (0%)
    Language : Italian
    Default : No
    Forced : No

    Text #15
    ID : 18
    Format : PGS
    Muxing mode : zlib
    Codec ID : S_HDMV/PGS
    Codec ID/Info : Picture based subtitle format used on BDs/HD-DVDs
    Duration : 1 h 27 min
    Bit rate : 12.7 kb/s
    Frame rate : 0.232 FPS
    Count of elements : 1224
    Stream size : 7.97 MiB (0%)
    Language : Norwegian
    Default : No
    Forced : No

    Text #16
    ID : 19
    Format : PGS
    Muxing mode : zlib
    Codec ID : S_HDMV/PGS
    Codec ID/Info : Picture based subtitle format used on BDs/HD-DVDs
    Duration : 1 h 31 min
    Bit rate : 14.2 kb/s
    Frame rate : 0.230 FPS
    Count of elements : 1260
    Stream size : 9.32 MiB (0%)
    Language : Portuguese
    Default : No
    Forced : No

    Text #17
    ID : 20
    Format : PGS
    Muxing mode : zlib
    Codec ID : S_HDMV/PGS
    Codec ID/Info : Picture based subtitle format used on BDs/HD-DVDs
    Duration : 1 h 27 min
    Bit rate : 14.3 kb/s
    Frame rate : 0.235 FPS
    Count of elements : 1240
    Stream size : 8.98 MiB (0%)
    Language : Spanish
    Default : No
    Forced : No

    Text #18
    ID : 21
    Format : PGS
    Muxing mode : zlib
    Codec ID : S_HDMV/PGS
    Codec ID/Info : Picture based subtitle format used on BDs/HD-DVDs
    Duration : 1 h 27 min
    Bit rate : 13.3 kb/s
    Frame rate : 0.214 FPS
    Count of elements : 1130
    Stream size : 8.34 MiB (0%)
    Language : Swedish
    Default : No
    Forced : No

    Text #19
    ID : 22
    Format : PGS
    Muxing mode : zlib
    Codec ID : S_HDMV/PGS
    Codec ID/Info : Picture based subtitle format used on BDs/HD-DVDs
    Duration : 1 h 31 min
    Bit rate : 12.6 kb/s
    Frame rate : 0.226 FPS
    Count of elements : 1242
    Stream size : 8.23 MiB (0%)
    Language : Turkish
    Default : No
    Forced : No



    BT 下载 推荐使用【迅雷云盘离线下载】【比特彗星】下载
  • 下载电影三步骤
    1、在《4K电影列表》找到并打开电影详情页,点击BT种子文件或复制磁力链,将BT种子下载到电脑中。
    2、电脑安装《BT下载软件》,免费的推荐使用《UTorrent》下载,收费的推荐使用《115网盘》下载(速度又快又稳).
    3、用BT下载软件,打开BT种子、或将磁力链复制粘贴到BT软件中即可下载。


    本站4K电影版块资源99%是真4K,都是从UHD蓝光碟片中提取而来!本站未发布的4K资源,全网都没有(除非假4K),所以发帖求资源也没用。

    下载速度慢怎么办
    1、正常情况使用《UTorrent》跟着网站发布资源节奏下载速度很快,可以达到宽带最大速度(电信)
    2、推荐使用《115网盘》下载速度又快又稳定,请勿使用迅雷下载;
    3、下载慢是有多方面原因,即依赖种子的热度、也要求是电信宽带(非移动/联通),同时选择对的下载软件和软件设置方法。
    4、使用BT协议下载没有速度,请更新《Trackers服务器》能够增加在线用户(越多越好),该方法使用《UTorrent》下载效果显著。
    更多下载问题参考: 4K电影下载新手学院>>

    多个种子/电影版本区别
    蓝光原盘BDMV
    俗称4K蓝光原盘,也就是从4K UHD蓝光碟中提取出来的源文件,由多个m2ts文件组成,与正版盘完全一致,且包含了光盘所有内容 (影片花絮、字幕、导航菜单、多语言多音轨、HDR 信息)等等,文件体积大,一部电影约有60GB+。此版本资源一般以「BDMV 文件夹」或「BDISO」 (iso) 格式发布;该版本可以用刻录机成带导航的光盘效果。

    DIY蓝光原盘BDMV
    经资源制作组基于蓝光原盘BDMV版本进行第二次DIY的版本,将片头AE特效、画面HDR调色、封装国语音轨、封装中文简体/繁体/英文等多语言字幕,更精彩的是是特效字幕(将电影画面中某些细节翻译成中文字幕)。

    蓝光BD-REMUX
    俗称REMUX,可以视为「音画质无损的精简版」"4K原盘",它其实就是将原盘里多余的一些音轨、花絮、菜单、字幕等东西移除或精简,仅保留主要的视频、主要音轨和部分语言字幕,然后再封装成「单个文件」的 .mkv 格式而来,其音质画质与BDMV蓝光原盘一致,但文件体积上能大幅缩减且成单个文件,在电脑上播放/管理/电视播放/播放器播放和分享起来也更方便。适合追求原盘音画质、不重视花絮周边内容、又希望稍微节省点硬盘空间的朋友。

    WEB-DL/WEBRip/流媒体版本
    WEB-DL 或 WEBRip 格式的影片主要来自 、Amazon Prime Video、Netflix、Hulu、YouTube 等「在线网络高清片源」。尽管这些服务提供了4K分辨率 (部分含 HDR) 的片源,但它们为了在线观看的流畅性,都会将视频画质进行较大幅度「有损压缩」。 WEB-DL 是 Web Download 的意思,指通过技术手段「直接下载」回来的在线视频 WEBRip 很多时候则是通过"屏幕转录"等方式二次录制,会造成多一次的画质损失。



    BT 下载 推荐使用【迅雷云盘离线下载】【比特彗星】下载
厄夜三十2 / 三十极夜2/三十极夜2:黑暗的日子4k.30.Days.Of.Night.Dark.Days.2010.2160p.Ai-Upscaled.10bit.H265.DTS-HD.MA.5.1-4k电影下载

三十极夜2:黑暗的日子4k.30.Days.Of.Night.Dark.Days.2010.2160p.Ai-Upscaled.10bit.H265.DTS-HD.MA.5.1【17.18 GB】


30.Days.Of.Night.Dark.Days.2010.2160p.Ai-Upscaled.10bit.H265.DTS-HD.MA.5.1-DirtyHippie_RIFE.4.14v2-60fps.torrent ( 172.84 KB )


加入蓝光高清网VIP会员  无限制下载本站所有资源---点这里

资源下载、资源播放、字幕使用、无法下载等常见问题---点这里
回复

使用道具 举报

全部回复1 显示全部楼层
andywjhh手机认证 发表于 2024-2-13 16:25:15 | 显示全部楼层
感谢楼主的分享~~~~谢谢了~~~~
回复 支持 反对

使用道具 举报

发表回复

您需要登录后才可以回帖 登录 | 立即注册

本版积分规则

开通会员 帮助中心 返回顶部 返回列表