本站已运行

蓝光高清网

搜索
开启左侧

[剧情] 怦然心动/萌动青春/青春萌动 Flipped.2010.1080p.BluRay.x264.DTS-FGT 7.93GB

蓝鸟 发表于 2019-8-22 04:08:34 | 显示全部楼层 |阅读模式

怦然心动/萌动青春/青春萌动 Flipped.2010.1080p.BluRay.x264.DTS-FGT 7.93GB-1.jpg
◎译  名 怦然心动/萌动青春/青春萌动/冒失/梧桐树之恋
◎片  名 Flipped
◎年  代 2010
◎国  家 美国
◎类  别 剧情/喜剧/爱情
◎语  言 英语
◎上映日期 2010-08-06(美国)
◎IMDb评分  7.7/10 from 51,620 users
◎IMDb链接  http://www.imdb.com/title/tt0817177/
◎豆瓣评分 8.9/10 from 370,704 users
◎豆瓣链接 http://movie.douban.com/subject/3319755/
◎片  长 USA: 90 分钟
◎导  演 罗伯·莱纳 Rob Reiner
◎主  演 玛德琳·卡罗尔 Madeline Carroll
      卡兰·麦克奥利菲 Callan McAuliffe
      瑞贝卡·德·莫妮 Rebecca De Mornay
      安东尼·爱德华兹 Anthony Edwards
      约翰·马奥尼 John Mahoney
      佩内洛普·安·米勒 Penelope Ann Miller
      艾丹·奎因 Aidan Quinn (I)
      凯文·韦斯曼 Kevin Weisman
      摩根·莉莉 Morgan Lily
◎简  介
  布莱斯(卡兰?麦克奥利菲 Callan McAuliffe 饰)全家搬到小镇,邻家女孩朱丽(玛德琳?卡罗尔 Madeline Carroll 饰)前来帮忙。她对他一见钟情,心愿是获得他的吻。两人是同班同学,她一直想方设法接近他,但是他避之不及。她喜欢爬在高高的梧桐树上看风景。但因为施工,树被要被砍掉,她誓死捍卫,希望他并肩作战,但是他退缩了。她的事迹上了报纸,外公对她颇有好感,令他十分困惑。她凭借鸡下蛋的项目获得了科技展第一名,成了全场焦点,令他黯然失色。她把自家鸡蛋送给他,他听家人怀疑她家鸡蛋不卫生,便偷偷把鸡蛋丢掉。她得知真相,很伤心,两人关系跌入冰点。她跟家人诉说,引发争吵。原来父亲一直攒钱照顾傻弟弟,所以生活拮据。她理解了父母,自己动手,还得到了他外公的鼎力相助。他向她道歉,但是并未解决问题。他开始关注她。鸡蛋风波未平,家庭晚宴与午餐男孩评选又把两人扯在了一起……
Video
ID                                       : 1
Format                                   : AVC
Format/Info                              : Advanced Video Codec
Format profile                           : [email protected]
Format settings, CABAC                   : Yes
Format settings, ReFrames                : 4 frames
Codec ID                                 : V_MPEG4/ISO/AVC
Duration                                 : 1h 33mn
Bit rate                                 : 10.5 Mbps
Nominal bit rate                         : 11.1 Mbps
Width                                    : 1 920 pixels
Height                                   : 1 080 pixels
Display aspect ratio                     : 16:9
Frame rate mode                          : Constant
Frame rate                               : 23.976 fps
Color space                              : YUV
Chroma subsampling                       : 4:2:0
Bit depth                                : 8 bits
Scan type                                : Progressive
Bits/(Pixel*Frame)                       : 0.210
Stream size                              : 6.79 GiB (86%)
Writing library                          : x264 core 110 r1804 e89c4cf
Encoding settings                        : cabac=1 / ref=4 / deblock=1:-3:-3 / analyse=0x3:0x113 / me=umh / subme=9 / psy=1 / psy_rd=1.05:0.10 / mixed_ref=1 / me_range=48 / chroma_me=1 / trellis=2 / 8x8dct=1 / cqm=0 / deadzone=21,11 / fast_pskip=0 / chroma_qp_offset=-2 / threads=12 / sliced_threads=0 / nr=0 / decimate=1 / interlaced=0 / constrained_intra=0 / bframes=6 / b_pyramid=2 / b_adapt=2 / b_bias=0 / direct=3 / weightb=1 / open_gop=0 / weightp=2 / keyint=250 / keyint_min=23 / scenecut=40 / intra_refresh=0 / rc_lookahead=60 / rc=2pass / mbtree=1 / bitrate=11136 / ratetol=1.0 / qcomp=0.70 / qpmin=0 / qpmax=51 / qpstep=4 / cplxblur=20.0 / qblur=0.5 / vbv_maxrate=50000 / vbv_bufsize=50000 / ip_ratio=1.40 / aq=1:0.90 / nal_hrd=none
Language                                 : English
Default                                  : Yes
Forced                                   : No
Audio
ID                                       : 2
Format                                   : DTS
Format/Info                              : Digital Theater Systems
Mode                                     : 16
Format settings, Endianness              : Big
Codec ID                                 : A_DTS
Duration                                 : 1h 33mn
Bit rate mode                            : Constant
Bit rate                                 : 1 509 Kbps
Channel(s)                               : 6 channels
Channel positions                        : Front: L C R, Side: L R, LFE
Sampling rate                            : 48.0 KHz
Bit depth                                : 24 bits
Compression mode                         : Lossy
Stream size                              : 1 004 MiB (12%)
Language                                 : English
Default                                  : Yes
Forced                                   : No
Text
ID                                       : 3
Format                                   : UTF-8
Codec ID                                 : S_TEXT/UTF8
Codec ID/Info                            : UTF-8 Plain Text
Language                                 : English
Default                                  : No
Forced                                   : No
Menu
00:00:00.000                             : en:00:00:00.000
00:09:59.974                             : en:00:09:59.974
00:20:27.309                             : en:00:20:27.309
00:31:19.002                             : en:00:31:19.002
00:40:22.920                             : en:00:40:22.920
00:49:34.262                             : en:00:49:34.262
00:59:03.873                             : en:00:59:03.873
01:09:08.936                             : en:01:09:08.936
01:19:20.297                             : en:01:19:20.297
01:24:09.210                             : en:01:24:09.210

精彩剧照

怦然心动/萌动青春/青春萌动 Flipped.2010.1080p.BluRay.x264.DTS-FGT 7.93GB-2.png 怦然心动/萌动青春/青春萌动 Flipped.2010.1080p.BluRay.x264.DTS-FGT 7.93GB-3.png 怦然心动/萌动青春/青春萌动 Flipped.2010.1080p.BluRay.x264.DTS-FGT 7.93GB-4.png 怦然心动/萌动青春/青春萌动 Flipped.2010.1080p.BluRay.x264.DTS-FGT 7.93GB-5.png 怦然心动/萌动青春/青春萌动 Flipped.2010.1080p.BluRay.x264.DTS-FGT 7.93GB-6.png 怦然心动/萌动青春/青春萌动 Flipped.2010.1080p.BluRay.x264.DTS-FGT 7.93GB-7.png                                                                                 


蓝光高清网提示您 点击下方附件名称 马上开始下载

Flipped.2010.1080p.BluRay.x264.DTS-FGT.torrent ( 79.87 KB )



温馨提示:
本站资源优先使用迅雷下载,迅雷会员下载,速度基本可以跑满宽带
如果遇到无资源或者版权问题无法下载,推荐使用115网盘离线下载(点击查看115网盘离线下载教程


加入蓝光高清网VIP会员  无限制下载本站所有资源---点这里

资源下载、资源播放、字幕使用、无法下载等常见问题---点这里
回复

使用道具 举报

全部回复0 显示全部楼层

发表回复

您需要登录后才可以回帖 登录 | 立即注册

本版积分规则