蓝光高清网

搜索
开启左侧

[8K视频] 8K (120 FPS) VIDEOS _ World 8K Videos HDR UltraHD _ Sony Demo-1.02GB

4k演示 发表于 2022-1-25 12:56:21 | 显示全部楼层 |阅读模式
23. 8K VIDEOS _ World 8K Videos HDR UltraHD  120 FPS _ Sony Demo.jpg

影片参数
General
Format                         : MPEG-4
Format profile                 : Base Media
Codec ID                       : isom (isom/iso2/mp41)
File size                      : 1.03 GiB
Duration                       : 5 min 12 s
Overall bit rate               : 28.3 Mb/s
Writing application            : Lavf58.29.100


Video
ID                             : 1
Format                         : AV1
Format/Info                    : AOMedia Video 1
Format profile                 : Main@L6.1
Codec ID                       : av01
Duration                       : 5 min 12 s
Bit rate                       : 28.1 Mb/s
Width                          : 7 680 pixels
Height                         : 4 320 pixels
Display aspect ratio           : 16:9
Frame rate mode                : Constant
Frame rate                     : 60.000 FPS
Color space                    : YUV
Chroma subsampling             : 4:2:0
Bit depth                      : 8 bits
Bits/(Pixel*Frame)             : 0.014
Stream size                    : 1.02 GiB (100%)
Title                          : ISO Media file produced by Google Inc.
Color range                    : Limited
Color primaries                : BT.709
Transfer characteristics       : BT.709
Matrix coefficients            : BT.709
Codec configuration box        : av1C

Audio
ID                             : 2
Format                         : AAC LC
Format/Info                    : Advanced Audio Codec Low Complexity
Codec ID                       : mp4a-40-2
Duration                       : 5 min 12 s
Bit rate mode                  : Constant
Bit rate                       : 128 kb/s
Channel(s)                     : 2 channels
Channel layout                 : L R
Sampling rate                  : 44.1 kHz
Frame rate                     : 43.066 FPS (1024 SPF)
Compression mode               : Lossy
Stream size                    : 4.76 MiB (0%)
Title                          : ISO Media file produced by Google Inc.
Language                       : English
Default                        : Yes
Alternate group                : 1

image.png
image.png
image.png

蓝光高清网提示您 点击下方附件名称 即可开始下载

8K  (120 FPS) VIDEOS _ World 8K Videos HDR UltraHD  _ Sony Demo-1.02GB

8K 120 FPS VIDEOS _ World 8K Videos HDR UltraHD _ Sony Demo-1.02GB.txt ( 172 Bytes )



回复

使用道具 举报

全部回复3 显示全部楼层
cocolee 发表于 2022-1-25 13:33:18 | 显示全部楼层
谢谢分享好资源
回复 支持 反对

使用道具 举报

gdlmxia 发表于 2022-3-23 12:36:01 | 显示全部楼层
太好啦&萬分感謝版主的無私發佈分享%
回复 支持 反对

使用道具 举报

skywalker74手机认证 发表于 2022-5-12 04:11:07 | 显示全部楼层
感谢楼主分享
回复 支持 反对

使用道具 举报

发表回复

您需要登录后才可以回帖 登录 | 立即注册

本版积分规则

联系客服 关注微信 下载APP 返回顶部 返回列表