蓝光高清网

搜索
开启左侧

[传记纪录片] 火花计划:发现创新的火种 4k.A.Spark.Story.2021.2160p.WEB-DL.x265.8bit.SDR.DDP5.1-4k电影下载—11.84 GB

蓝鸟 发表于 2022-4-3 11:30:52 | 显示全部楼层 |阅读模式
简       介

  遵循皮克斯的 SparkShorts 电影制作过程,特别是 Corbin 和 Gonzales 的过程,在他们将个人愿景带到银幕时提供亲密的外观。


影片参数
皮克斯:创作火花的幕后直击(台) / 闪烁背后的故事(港)/火花计划:发现创新的火种4k.A.Spark.Story.2021.2160p.WEB-DL.x265.8bit.SDR.DDP5.1-4k电影信息
Video
ID : 1
Format : HEVC
Format/Info : High Efficiency Video Coding
Format profile : Main@L5@High
Codec ID : V_MPEGH/ISO/HEVC
Duration : 1 h 26 min
Bit rate : 19.2 Mb/s
Width : 3 840 pixels
Height : 2 160 pixels
Display aspect ratio : 16:9
Frame rate mode : Constant
Frame rate : 23.976 (24000/1001) FPS
Color space : YUV
Chroma subsampling : 4:2:0
Bit depth : 8 bits
Bits/(Pixel*Frame) : 0.097
Stream size : 11.7 GiB (99%)
Writing library : x265 3.5:[Linux][GCC 7.5.0][64 bit] 8bit+10bit+12bit
Encoding settings : cpuid=1111039 / frame-threads=1 / wpp / no-pmode / no-pme / no-psnr / no-ssim / log-level=2 / input-csp=1 / input-res=3840x2160 / interlace=0 / total-frames=0 / level-idc=50 / high-tier=1 / uhd-bd=0 / ref=2 / no-allow-non-conformance / repeat-headers / annexb / no-aud / no-hrd / info / hash=0 / no-temporal-layers / no-open-gop / min-keyint=48 / keyint=48 / gop-lookahead=0 / bframes=4 / b-adapt=0 / b-pyramid / bframe-bias=0 / rc-lookahead=48 / lookahead-slices=8 / scenecut=0 / hist-scenecut=0 / radl=0 / no-splice / no-intra-refresh / ctu=32 / min-cu-size=8 / no-rect / no-amp / max-tu-size=16 / tu-inter-depth=2 / tu-intra-depth=2 / limit-tu=0 / rdoq-level=1 / dynamic-rd=0.00 / no-ssim-rd / signhide / no-tskip / nr-intra=0 / nr-inter=0 / no-constrained-intra / no-strong-intra-smoothing / max-merge=3 / limit-refs=1 / no-limit-modes / me=1 / subme=2 / merange=44 / temporal-mvp / no-frame-dup / no-hme / weightp / no-weightb / no-analyze-src-pics / deblock=0:0 / no-sao / no-sao-non-deblock / rd=4 / selective-sao=0 / early-skip / rskip / no-fast-intra / no-tskip-fast / no-cu-lossless / b-intra / no-splitrd-skip / rdpenalty=1 / psy-rd=1.60 / psy-rdoq=5.00 / no-rd-refine / no-lossless / cbqpoffs=0 / crqpoffs=0 / rc=abr / bitrate=20000 / qcomp=0.75 / qpstep=4 / stats-write=0 / stats-read=0 / vbv-maxrate=24000 / vbv-bufsize=40000 / vbv-init=0.9 / ipratio=1.40 / pbratio=1.30 / aq-mode=3 / aq-strength=1.00 / no-cutree / zone-count=0 / no-strict-cbr / qg-size=32 / no-rc-grain / qpmax=69 / qpmin=0 / no-const-vbv / sar=1 / overscan=0 / videoformat=5 / range=0 / colorprim=1 / transfer=1 / colormatrix=1 / chromaloc=0 / display-window=0 / cll=0,0 / min-luma=0 / max-luma=255 / log2-max-poc-lsb=8 / vui-timing-info / vui-hrd-info / slices=1 / no-opt-qp-pps / no-opt-ref-list-length-pps / no-multi-pass-opt-rps / scenecut-bias=0.00 / hist-threshold=0.01 / no-opt-cu-delta-qp / no-aq-motion / no-hdr10 / no-hdr10-opt / no-dhdr10-opt / no-idr-recovery-sei / analysis-reuse-level=0 / analysis-save-reuse-level=0 / analysis-load-reuse-level=0 / scale-factor=0 / refine-intra=0 / refine-inter=0 / refine-mv=1 / refine-ctu-distortion=0 / no-limit-sao / ctu-info=0 / no-lowpass-dct / refine-analysis-type=0 / copy-pic=1 / max-ausize-factor=1.0 / no-dynamic-refine / no-single-sei / no-hevc-aq / no-svt / no-field / qp-adaptation-range=1.00 / no-scenecut-aware-qpconformance-window-offsets / right=0 / bottom=0
Default : No
Forced : No
Color range : Limited
Color primaries : BT.709
Transfer characteristics : BT.709
Matrix coefficients : BT.709


Audio
ID : 2
Format : E-AC-3
Format/Info : Enhanced AC-3
Commercial name : Dolby Digital Plus
Codec ID : A_EAC3
Duration : 1 h 26 min
Bit rate mode : Constant
Bit rate : 256 kb/s
Channel(s) : 6 channels
Channel layout : L R C LFE Ls Rs
Sampling rate : 48.0 kHz
Frame rate : 31.250 FPS (1536 SPF)
Compression mode : Lossy
Delay relative to video : 3 s 3 ms
Stream size : 159 MiB (1%)
Language : English
Service kind : Complete Main
Default : Yes
Forced : No


Text #1
ID : 3
Format : UTF-8
Codec ID : S_TEXT/UTF8
Codec ID/Info : UTF-8 Plain Text
Duration : 1 h 22 min
Bit rate : 124 b/s
Count of elements : 1394
Stream size : 75.7 KiB (0%)
Language : English
Default : No
Forced : No


Text #2
ID : 4
Format : UTF-8
Codec ID : S_TEXT/UTF8
Codec ID/Info : UTF-8 Plain Text
Duration : 1 h 22 min
Bit rate : 127 b/s
Count of elements : 1422
Stream size : 77.5 KiB (0%)
Title : SDH
Language : English
Default : No
Forced : No


Text #3
ID : 5
Format : UTF-8
Codec ID : S_TEXT/UTF8
Codec ID/Info : UTF-8 Plain Text
Duration : 1 h 26 min
Bit rate : 109 b/s
Count of elements : 1258
Stream size : 69.3 KiB (0%)
Language : Danish
Default : No
Forced : No


Text #4
ID : 6
Format : UTF-8
Codec ID : S_TEXT/UTF8
Codec ID/Info : UTF-8 Plain Text
Duration : 1 h 26 min
Bit rate : 105 b/s
Count of elements : 1417
Stream size : 66.9 KiB (0%)
Language : German
Default : No
Forced : No


Text #5
ID : 7
Format : UTF-8
Codec ID : S_TEXT/UTF8
Codec ID/Info : UTF-8 Plain Text
Duration : 1 h 26 min
Bit rate : 110 b/s
Count of elements : 1449
Stream size : 70.2 KiB (0%)
Title : Latin American
Language : Spanish
Default : No
Forced : No


Text #6
ID : 8
Format : UTF-8
Codec ID : S_TEXT/UTF8
Codec ID/Info : UTF-8 Plain Text
Duration : 1 h 26 min
Bit rate : 110 b/s
Count of elements : 1459
Stream size : 70.1 KiB (0%)
Language : Spanish
Default : No
Forced : No


Text #7
ID : 9
Format : UTF-8
Codec ID : S_TEXT/UTF8
Codec ID/Info : UTF-8 Plain Text
Duration : 1 h 26 min
Bit rate : 91 b/s
Count of elements : 1449
Stream size : 57.6 KiB (0%)
Language : Finnish
Default : No
Forced : No


Text #8
ID : 10
Format : UTF-8
Codec ID : S_TEXT/UTF8
Codec ID/Info : UTF-8 Plain Text
Duration : 1 h 26 min
Bit rate : 99 b/s
Count of elements : 1340
Stream size : 62.8 KiB (0%)
Language : French
Default : No
Forced : No


Text #9
ID : 11
Format : UTF-8
Codec ID : S_TEXT/UTF8
Codec ID/Info : UTF-8 Plain Text
Duration : 1 h 26 min
Bit rate : 112 b/s
Count of elements : 1443
Stream size : 70.8 KiB (0%)
Language : Italian
Default : No
Forced : No


Text #10
ID : 12
Format : UTF-8
Codec ID : S_TEXT/UTF8
Codec ID/Info : UTF-8 Plain Text
Duration : 1 h 26 min
Bit rate : 84 b/s
Count of elements : 1134
Stream size : 53.3 KiB (0%)
Language : Japanese
Default : No
Forced : No


Text #11
ID : 13
Format : UTF-8
Codec ID : S_TEXT/UTF8
Codec ID/Info : UTF-8 Plain Text
Duration : 1 h 26 min
Bit rate : 115 b/s
Count of elements : 1488
Stream size : 73.1 KiB (0%)
Language : Korean
Default : No
Forced : No


Text #12
ID : 14
Format : UTF-8
Codec ID : S_TEXT/UTF8
Codec ID/Info : UTF-8 Plain Text
Duration : 1 h 26 min
Bit rate : 78 b/s
Count of elements : 1123
Stream size : 49.5 KiB (0%)
Language : Dutch
Default : No
Forced : No


Text #13
ID : 15
Format : UTF-8
Codec ID : S_TEXT/UTF8
Codec ID/Info : UTF-8 Plain Text
Duration : 1 h 26 min
Bit rate : 106 b/s
Count of elements : 1444
Stream size : 67.2 KiB (0%)
Language : Norwegian
Default : No
Forced : No


Text #14
ID : 16
Format : UTF-8
Codec ID : S_TEXT/UTF8
Codec ID/Info : UTF-8 Plain Text
Duration : 1 h 26 min
Bit rate : 103 b/s
Count of elements : 1463
Stream size : 65.4 KiB (0%)
Language : Polish
Default : No
Forced : No


Text #15
ID : 17
Format : UTF-8
Codec ID : S_TEXT/UTF8
Codec ID/Info : UTF-8 Plain Text
Duration : 1 h 26 min
Bit rate : 117 b/s
Count of elements : 1461
Stream size : 74.3 KiB (0%)
Title : Brazilian
Language : Portuguese
Default : No
Forced : No


Text #16
ID : 18
Format : UTF-8
Codec ID : S_TEXT/UTF8
Codec ID/Info : UTF-8 Plain Text
Duration : 1 h 26 min
Bit rate : 109 b/s
Count of elements : 1456
Stream size : 68.9 KiB (0%)
Language : Portuguese
Default : No
Forced : No


Text #17
ID : 19
Format : UTF-8
Codec ID : S_TEXT/UTF8
Codec ID/Info : UTF-8 Plain Text
Duration : 1 h 26 min
Bit rate : 98 b/s
Count of elements : 1447
Stream size : 62.3 KiB (0%)
Language : Swedish
Default : No
Forced : No


Text #18
ID : 20
Format : UTF-8
Codec ID : S_TEXT/UTF8
Codec ID/Info : UTF-8 Plain Text
Duration : 1 h 26 min
Bit rate : 85 b/s
Count of elements : 1484
Stream size : 54.4 KiB (0%)
Title : Cantonese
Language : Chinese
Default : No
Forced : No


Text #19
ID : 21
Format : UTF-8
Codec ID : S_TEXT/UTF8
Codec ID/Info : UTF-8 Plain Text
Duration : 1 h 26 min
Bit rate : 88 b/s
Count of elements : 1480
Stream size : 55.6 KiB (0%)
Title : Simplified
Language : Chinese
Default : No
Forced : No


Text #20
ID : 22
Format : UTF-8
Codec ID : S_TEXT/UTF8
Codec ID/Info : UTF-8 Plain Text
Duration : 1 h 26 min
Bit rate : 85 b/s
Count of elements : 1486
Stream size : 54.2 KiB (0%)
Title : Traditional
Language : Chinese
Default : No
Forced : No


蓝光高清网提示您 点击下方附件名称 即可开始下载


多版本下载时请注意区分

皮克斯:创作火花的幕后直击(台) / 闪烁背后的故事(港)/火花计划:发现创新的火种4k.A.Spark.Story.2021.2160p.WEB-DL.x265.8bit.SDR.DDP5.1-4k电影下载【自带中字】

火花计划:发现创新的火种4k.A.Spark.Story.2021.2160p.WEB-DL.x265.8bit.SDR.DDP5.1【4k SDR 11.84 GB】



火花计划:发现创新的火种4k.A.Spark.Story.2021.2160p.WEB-DL.DDP5.1.DV.MP4.x265【4k 杜比视界 12.88 GB】



火花计划:发现创新的火种4k.A.Spark.Story.2021.2160p.WEB-DL.DDP5.1.DV.MKV.x265【4k 杜比视界 12.88 GB】



来源: 火花计划:发现创新的火种 4k.A.Spark.Story.2021.2160p.WEB-DL.x265.8bit.SDR.DDP5.1-4k电影下载—11.84 GB
加入蓝光高清网VIP会员  无限制下载本站所有资源---点这里

资源下载、资源播放、字幕使用、无法下载等常见问题---点这里
回复

使用道具 举报

全部回复0 显示全部楼层

发表回复

您需要登录后才可以回帖 登录 | 立即注册

本版积分规则

联系客服 关注微信 下载APP 返回顶部 返回列表