蓝光高清网

搜索
开启左侧

[剧情] 美丽至极 Out.of.My.League.2020.ITALIAN.1080p.BluRay.x264.DDP5.1-EA 8.35GB

蓝鸟 发表于 5 天前 | 显示全部楼层 |阅读模式

美丽至极 Out.of.My.League.2020.ITALIAN.1080p.BluRay.x264.DDP5.1-EA 8.35GB

美丽至极 Out.of.My.League.2020.ITALIAN.1080p.BluRay.x264.DDP5.1-EA 8.35GB


译  名 美丽至极 / 最美丽的邂逅 / Sul Più Bello / On the Most beautiful / Out of My League
片  名 Sul più bello
年  代 2020
产  地 意大利
类  别 剧情 / 喜剧 / 爱情
语  言 意大利语
上映日期 2020-10-21(意大利)
豆瓣评分 6.5/10 (117人评价)
片  长 91分钟
导  演 Alice Filippi Alice Filippi
演  员 朱塞佩·马吉奥 Giuseppe Maggio
       Elisabetta Coraini Elisabetta Coraini
       弗兰科·拉韦拉 Franco Ravera
       Edoardo Rossi Edoardo Rossi

简  介

Marta may be an orphan, and she may be affected by a lethal illness, yet she is the most positive person one can meet. She wants a boy to fall for her. Not any boy - the most handsome of them all. One day, she may have found her match.


获奖情况 (共1项)

第66届意大利大卫奖 (2021)
  最佳新导演(提名)
   └──Alice Filippi


影片参数
  1. Video
  2. ID                                       : 1
  3. Format                                   : AVC
  4. Format/Info                              : Advanced Video Codec
  5. Format profile                           : [email protected]
  6. Format settings                          : CABAC / 5 Ref Frames
  7. Format settings, CABAC                   : Yes
  8. Format settings, Reference frames        : 5 frames
  9. Codec ID                                 : V_MPEG4/ISO/AVC
  10. Duration                                 : 1 h 31 min
  11. Bit rate                                 : 12.1 Mb/s
  12. Width                                    : 1 920 pixels
  13. Height                                   : 806 pixels
  14. Display aspect ratio                     : 2.40:1
  15. Frame rate mode                          : Constant
  16. Frame rate                               : 24.000 FPS
  17. Color space                              : YUV
  18. Chroma subsampling                       : 4:2:0
  19. Bit depth                                : 8 bits
  20. Scan type                                : Progressive
  21. Bits/(Pixel*Frame)                       : 0.325
  22. Stream size                              : 7.68 GiB (92%)
  23. Title                                    : -EA
  24. Writing library                          : x264 core 164 r3085+55M 938b6d0 t_mod_New [(8 & 10)[email protected] X86_64]
  25. Encoding settings                        : cabac=1 / ref=5 / deblock=1:-3:-3 / analyse=0x3:0x133 / me=umh / subme=10 / psy=1 / fade_compensate=0.00 / psy_rd=0.96:0.00 / mixed_ref=1 / me_range=32 / chroma_me=1 / trellis=2 / 8x8dct=1 / cqm=0 / deadzone=21,11 / fast_pskip=0 / chroma_qp_offset=-2 / threads=18 / lookahead_threads=3 / sliced_threads=0 / nr=0 / decimate=0 / interlaced=0 / bluray_compat=0 / constrained_intra=0 / fgo=0 / bframes=9 / b_pyramid=2 / b_adapt=2 / b_bias=0 / direct=3 / weightb=1 / open_gop=0 / weightp=2 / keyint=240 / keyint_min=24 / scenecut=40 / intra_refresh=0 / rc_lookahead=60 / rc=crf / mbtree=0 / crf=16.7000 / qcomp=0.65 / qpmin=0:0:0 / qpmax=69:69:69 / qpstep=4 / vbv_maxrate=62500 / vbv_bufsize=78125 / crf_max=0.0 / nal_hrd=none / filler=0 / ip_ratio=1.35 / pb_ratio=1.25 / aq=3:0.85 / aq-sensitivity=10.00 / aq-factor=1.00:1.00:1.00 / aq2=0 / aq3=0
  26. Language                                 : Italian
  27. Default                                  : Yes
  28. Forced                                   : No
  29. Color range                              : Limited
  30. Color primaries                          : BT.709
  31. Transfer characteristics                 : BT.709
  32. Matrix coefficients                      : BT.709
  33. Audio
  34. ID                                       : 2
  35. Format                                   : E-AC-3
  36. Format/Info                              : Enhanced AC-3
  37. Commercial name                          : Dolby Digital Plus
  38. Codec ID                                 : A_EAC3
  39. Duration                                 : 1 h 31 min
  40. Bit rate mode                            : Constant
  41. Bit rate                                 : 1 024 kb/s
  42. Channel(s)                               : 6 channels
  43. Channel layout                           : L R C LFE Ls Rs
  44. Sampling rate                            : 48.0 kHz
  45. Frame rate                               : 31.250 FPS (1536 SPF)
  46. Compression mode                         : Lossy
  47. Stream size                              : 667 MiB (8%)
  48. Language                                 : Italian
  49. Service kind                             : Complete Main
  50. Default                                  : Yes
  51. Forced                                   : No
  52. Text #1
  53. ID                                       : 3
  54. Format                                   : UTF-8
  55. Codec ID                                 : S_TEXT/UTF8
  56. Codec ID/Info                            : UTF-8 Plain Text
  57. Duration                                 : 1 h 26 min
  58. Bit rate                                 : 47 b/s
  59. Count of elements                        : 997
  60. Stream size                              : 30.4 KiB (0%)
  61. Title                                    : srt
  62. Language                                 : English
  63. Default                                  : Yes
  64. Forced                                   : No
  65. Text #2
  66. ID                                       : 4
  67. Format                                   : PGS
  68. Muxing mode                              : zlib
  69. Codec ID                                 : S_HDMV/PGS
  70. Codec ID/Info                            : Picture based subtitle format used on BDs/HD-DVDs
  71. Duration                                 : 1 h 26 min
  72. Bit rate                                 : 27.0 kb/s
  73. Count of elements                        : 1994
  74. Stream size                              : 16.8 MiB (0%)
  75. Title                                    : sup
  76. Language                                 : English
  77. Default                                  : No
  78. Forced                                   : No
  79. Text #3
  80. ID                                       : 5
  81. Format                                   : PGS
  82. Muxing mode                              : zlib
  83. Codec ID                                 : S_HDMV/PGS
  84. Codec ID/Info                            : Picture based subtitle format used on BDs/HD-DVDs
  85. Duration                                 : 1 h 26 min
  86. Bit rate                                 : 29.8 kb/s
  87. Count of elements                        : 2184
  88. Stream size                              : 18.5 MiB (0%)
  89. Title                                    : sup
  90. Language                                 : Italian
  91. Default                                  : No
  92. Forced                                   : No
  93. Menu
  94. 00:00:00.000                             : :Chapter 1
  95. 00:08:15.792                             : :Chapter 2
  96. 00:15:17.833                             : :Chapter 3
  97. 00:22:06.417                             : :Chapter 4
  98. 00:29:45.208                             : :Chapter 5
  99. 00:37:30.083                             : :Chapter 6
  100. 00:45:58.917                             : :Chapter 7
  101. 00:52:16.917                             : :Chapter 8
  102. 00:59:38.750                             : :Chapter 9
  103. 01:08:01.750                             : :Chapter 10
  104. 01:16:27.042                             : :Chapter 11
  105. 01:22:48.167                             : :Chapter 12
复制代码

美丽至极 Out.of.My.League.2020.ITALIAN.1080p.BluRay.x264.DDP5.1-EA 8.35GB

美丽至极 Out.of.My.League.2020.ITALIAN.1080p.BluRay.x264.DDP5.1-EA 8.35GB

美丽至极 Out.of.My.League.2020.ITALIAN.1080p.BluRay.x264.DDP5.1-EA 8.35GB

美丽至极 Out.of.My.League.2020.ITALIAN.1080p.BluRay.x264.DDP5.1-EA 8.35GB



蓝光高清网提示您 点击下方附件即可下载

美丽至极 Out.of.My.League.2020.ITALIAN.1080p.BluRay.x264.DDP5.1-EA 8.35GB

Out.of.My.League.2020.ITALIAN.1080p.BluRay.x264.DDP5.1-EA.torrent ( 21.5 KB )

加入蓝光高清网VIP会员  无限制下载本站所有资源---点这里

资源下载、资源播放、字幕使用、无法下载等常见问题---点这里
回复

使用道具 举报

全部回复0 显示全部楼层

发表回复

您需要登录后才可以回帖 登录 | 立即注册

本版积分规则

联系客服 关注微信 下载APP 返回顶部 返回列表