蓝光高清网

搜索
开启左侧

[喜剧] 钥孔痴汉 Keyholes.Are.For.Peeping.1972.1080p.BluRay.x264.DTS-FGT 5.72GB

蓝鸟 发表于 前天 10:43 | 显示全部楼层 |阅读模式

钥孔痴汉 Keyholes.Are.For.Peeping.1972.1080p.BluRay.x264.DTS-FGT 5.72GB

钥孔痴汉 Keyholes.Are.For.Peeping.1972.1080p.BluRay.x264.DTS-FGT 5.72GB


标  题 钥孔痴汉
片  名 Keyholes Are for Peeping
年  代 1972
产  地 美国
类  别 喜剧
语  言 英语
IMDb评分 4.6/10 (85人评价)
导  演 桃乐丝·维斯曼 Doris Wishman
编  剧 桃乐丝·维斯曼 Doris Wishman
演  员 桃乐丝·维斯曼 Doris Wishman
       Arlana Blue Arlana Blue
       Sammy Petrillo Sammy Petrillo
       桃乐丝·维斯曼 Doris Wishman
       C·戴维斯·史密斯 C. Davis Smith

简  介

一个维修工冒充婚姻顾问给他的邻居们提供性咨询,这个好色之徒透过大楼里每户的钥孔暗暗窥视着邻居们的床地之欢。一个男人在通过函授课程获得学位后,利用他所学的知识帮助他的邻居们重新点燃欲火。而大家却未意识到他们最私密的时刻都成了这个能窥视整幢楼内住户的孤僻的维修工眼中的盛宴。


影片参数
  1. Video
  2. ID                                       : 1
  3. Format                                   : AVC
  4. Format/Info                              : Advanced Video Codec
  5. Format profile                           : [email protected]
  6. Format settings                          : CABAC / 4 Ref Frames
  7. Format settings, CABAC                   : Yes
  8. Format settings, Reference frames        : 4 frames
  9. Codec ID                                 : V_MPEG4/ISO/AVC
  10. Duration                                 : 1 h 9 min
  11. Bit rate                                 : 11.5 Mb/s
  12. Width                                    : 1 484 pixels
  13. Height                                   : 1 080 pixels
  14. Display aspect ratio                     : 1.374
  15. Frame rate mode                          : Constant
  16. Frame rate                               : 23.976 (24000/1001/189150) FPS
  17. Color space                              : YUV
  18. Chroma subsampling                       : 4:2:0
  19. Bit depth                                : 8 bits
  20. Scan type                                : Progressive
  21. Bits/(Pixel*Frame)                       : 0.299
  22. Stream size                              : 5.60 GiB (98%)
  23. Writing library                          : x264 core 148 r2795M aaa9aa8
  24. Encoding settings                        : cabac=1 / ref=4 / deblock=1:-2:-2 / analyse=0x3:0x113 / me=umh / subme=9 / psy=1 / psy_rd=1.00:0.15 / mixed_ref=1 / me_range=16 / chroma_me=1 / trellis=2 / 8x8dct=1 / cqm=0 / deadzone=21,11 / fast_pskip=1 / chroma_qp_offset=-3 / threads=24 / lookahead_threads=3 / sliced_threads=0 / nr=0 / decimate=1 / interlaced=0 / bluray_compat=0 / constrained_intra=0 / bframes=3 / b_pyramid=2 / b_adapt=1 / b_bias=0 / direct=3 / weightb=1 / open_gop=0 / weightp=2 / keyint=250 / keyint_min=25 / scenecut=40 / intra_refresh=0 / rc_lookahead=50 / rc=2pass / mbtree=1 / bitrate=11500 / ratetol=1.0 / qcomp=0.60 / qpmin=0 / qpmax=69 / qpstep=4 / cplxblur=20.0 / qblur=0.5 / vbv_maxrate=31250 / vbv_bufsize=31250 / nal_hrd=none / filler=0 / ip_ratio=1.40 / aq=1:1.00
  25. Language                                 : English
  26. Default                                  : Yes
  27. Forced                                   : No
  28. Audio
  29. ID                                       : 2
  30. Format                                   : DTS
  31. Format/Info                              : Digital Theater Systems
  32. Codec ID                                 : A_DTS
  33. Duration                                 : 1 h 9 min
  34. Bit rate mode                            : Constant
  35. Bit rate                                 : 255 kb/s
  36. Channel(s)                               : 1 channel
  37. Channel layout                           : C
  38. Sampling rate                            : 48.0 kHz
  39. Frame rate                               : 93.750 FPS (512 SPF)
  40. Bit depth                                : 24 bits
  41. Compression mode                         : Lossy
  42. Stream size                              : 127 MiB (2%)
  43. Language                                 : English
  44. Default                                  : Yes
  45. Forced                                   : No
  46. Text #1
  47. ID                                       : 3
  48. Format                                   : UTF-8
  49. Codec ID                                 : S_TEXT/UTF8
  50. Codec ID/Info                            : UTF-8 Plain Text
  51. Duration                                 : 1 h 8 min
  52. Bit rate                                 : 33 b/s
  53. Count of elements                        : 589
  54. Stream size                              : 16.5 KiB (0%)
  55. Language                                 : English
  56. Default                                  : Yes
  57. Forced                                   : No
  58. Text #2
  59. ID                                       : 4
  60. Format                                   : UTF-8
  61. Codec ID                                 : S_TEXT/UTF8
  62. Codec ID/Info                            : UTF-8 Plain Text
  63. Duration                                 : 1 h 9 min
  64. Bit rate                                 : 40 b/s
  65. Count of elements                        : 774
  66. Stream size                              : 20.4 KiB (0%)
  67. Title                                    : SDH
  68. Language                                 : English
  69. Default                                  : No
  70. Forced                                   : No
  71. Menu
  72. 00:00:00.000                             : en:Chapter 01
  73. 00:01:59.035                             : en:Chapter 02
  74. 00:14:15.354                             : en:Chapter 03
  75. 00:30:23.154                             : en:Chapter 04
  76. 00:40:38.978                             : en:Chapter 05
  77. 00:54:54.791                             : en:Chapter 06
  78. 01:04:18.604                             : en:Chapter 07
复制代码

钥孔痴汉 Keyholes.Are.For.Peeping.1972.1080p.BluRay.x264.DTS-FGT 5.72GB

钥孔痴汉 Keyholes.Are.For.Peeping.1972.1080p.BluRay.x264.DTS-FGT 5.72GB

钥孔痴汉 Keyholes.Are.For.Peeping.1972.1080p.BluRay.x264.DTS-FGT 5.72GB

钥孔痴汉 Keyholes.Are.For.Peeping.1972.1080p.BluRay.x264.DTS-FGT 5.72GB



蓝光高清网提示您 点击下方附件即可下载

钥孔痴汉 Keyholes.Are.For.Peeping.1972.1080p.BluRay.x264.DTS-FGT 5.72GB

Keyholes.Are.For.Peeping.1972.1080p.BluRay.x264.DTS-FGT.torrent ( 14.94 KB )

加入蓝光高清网VIP会员  无限制下载本站所有资源---点这里

资源下载、资源播放、字幕使用、无法下载等常见问题---点这里
回复

使用道具 举报

全部回复0 显示全部楼层

发表回复

您需要登录后才可以回帖 登录 | 立即注册

本版积分规则

联系客服 关注微信 下载APP 返回顶部 返回列表