本站已运行

蓝光高清网

搜索
开启左侧

[惊悚片] 《鬼娃回魂3 Childs.Play.3.1991.REMASTERED.1080p.BluRay.REMUX.AVC.DTS-HD.MA.TrueHD.7.1.Atmos-FGT 28.44GB》迅雷下载_4kii.com网 - 4kii.com

蓝鸟 发表于 2022-8-11 09:41:36 | 显示全部楼层 |阅读模式

《鬼娃回魂3 Childs.Play.3.1991.REMASTERED.1080p.BluRay.REMUX.AVC.DTS-HD.MA.TrueHD.7.1.Atmos-FGT 28.4 ...

《鬼娃回魂3 Childs.Play.3.1991.REMASTERED.1080p.BluRay.REMUX.AVC.DTS-HD.MA.TrueHD.7.1.Atmos-FGT 28.4 ...


译  名 鬼娃回魂3 / 灵异入侵3 / 灵异入侵少年兵团
片  名 Child''s Play 3
年  代 1991
产  地 英国 / 美国
类  别 惊悚 / 恐怖
语  言 英语
上映日期 1991-08-30
豆瓣评分 6.2/10 (5019人评价)
片  长 90 分钟
导  演 杰克·本德 Jack Bender
编  剧 唐·曼西尼 Don Mancini
演  员 贾斯廷·威林 Justin Whalin
       佩瑞·里维斯 Perrey Reeves
       特拉维斯·费恩 Travis Fine
       布拉德·道里夫 Brad Dourif
       彼得哈斯克尔 Peter Haskell
       戴金·马修斯 Dakin Matthews
       安德鲁·罗宾逊 Andrew Robinson
       博克伯恩斯 Burke Byrnes
       马修·沃克 Matthew Walker
       Edan Gross Edan Gross
       理查马里恩 Richard Marion
       David Sosna David Sosna
       罗恩·法斯勒 Ron Fassler
       马克·克里斯托弗·劳伦斯 Mark Christopher Lawrence
       Kent Winfrey Kent Winfrey
       亨利·G.桑德斯 Henry G. Sanders
       Robert Latham Brown Robert Latham Brown
       戴维·科许纳 David Kirschner
       约翰·R·莱昂耐迪 John R. Leonetti
       Glenn Daniels Glenn Daniels
       Ron Pipes Ron Pipes
       Sharleen Rassi Sharleen Rassi
       肖恩·史密斯 Shaun Smith
       Craig Reardon Craig Reardon
       T.C. Williams T.C. Williams
       Scott Oshita Scott Oshita
       Vincent J. Guastini Vincent J. Guastini
       Scott Metcalfe Scott Metcalfe
       Robert Latham Brown Robert Latham Brown
       Thomas Boland Thomas Boland

简  介

楚其被熔毁之后八年,玩具公司为打开销路考虑再度推出“好家伙”公仔,他们将当年楚其的残骸回收,再度制作使其复活,获得重生的楚其为了完成灵魂转移,将玩具公司总裁杀死后消失于夜色。安迪(Justin Whalin 饰)经历了八年收养生活,此时来到一所军校就读,当年楚其留给他的恐怖回忆仍然挥之不去,而在学校中应付严苛的助理上校谢尔顿(Travis Fine 饰)亦并不轻松。楚其将自己邮寄到军校以寻找安迪,不料却被小学员二等兵泰勒占为已有,楚其认为自己的身体获得新生,可以摆脱必须占有安迪身体的宿命,随即把自己的秘密告知泰勒,并计划夺走泰勒的肉身。安迪不能坐视同侪受害,再度与楚其展开抗争……


影片参数
  1. Video
  2. ID                                       : 1
  3. ID in the original source medium         : 4113 (0x1011)
  4. Format                                   : AVC
  5. Format/Info                              : Advanced Video Codec
  6. Format profile                           : [email protected]
  7. Format settings                          : CABAC / 4 Ref Frames
  8. Format settings, CABAC                   : Yes
  9. Format settings, Reference frames        : 4 frames
  10. Codec ID                                 : V_MPEG4/ISO/AVC
  11. Duration                                 : 1 h 29 min
  12. Bit rate mode                            : Variable
  13. Bit rate                                 : 33.7 Mb/s
  14. Maximum bit rate                         : 35.0 Mb/s
  15. Width                                    : 1 920 pixels
  16. Height                                   : 1 080 pixels
  17. Display aspect ratio                     : 16:9
  18. Frame rate mode                          : Constant
  19. Frame rate                               : 24.000 FPS
  20. Color space                              : YUV
  21. Chroma subsampling                       : 4:2:0
  22. Bit depth                                : 8 bits
  23. Scan type                                : Progressive
  24. Bits/(Pixel*Frame)                       : 0.677
  25. Stream size                              : 21.2 GiB (74%)
  26. Language                                 : English
  27. Default                                  : No
  28. Forced                                   : No
  29. Original source medium                   : Blu-ray
  30. Audio #1
  31. ID                                       : 2
  32. ID in the original source medium         : 4352 (0x1100)
  33. Format                                   : MLP FBA 16-ch
  34. Format/Info                              : Meridian Lossless Packing FBA with 16-channel presentation
  35. Commercial name                          : Dolby TrueHD with Dolby Atmos
  36. Codec ID                                 : A_TRUEHD
  37. Duration                                 : 1 h 29 min
  38. Bit rate mode                            : Variable
  39. Bit rate                                 : 4 111 kb/s
  40. Maximum bit rate                         : 6 951 kb/s
  41. Channel(s)                               : 8 channels
  42. Channel layout                           : L R C LFE Ls Rs Lb Rb
  43. Sampling rate                            : 48.0 kHz
  44. Frame rate                               : 1 200.000 FPS (40 SPF)
  45. Bit depth                                : 24 bits
  46. Compression mode                         : Lossless
  47. Stream size                              : 2.58 GiB (9%)
  48. Title                                    : TrueHD 7.1. Atmos
  49. Language                                 : English
  50. Default                                  : Yes
  51. Forced                                   : No
  52. Original source medium                   : Blu-ray
  53. Number of dynamic objects                : 11
  54. Bed channel count                        : 1 channel
  55. Bed channel configuration                : LFE
  56. Audio #2
  57. ID                                       : 3
  58. Format                                   : DTS XLL
  59. Format/Info                              : Digital Theater Systems
  60. Commercial name                          : DTS-HD Master Audio
  61. Codec ID                                 : A_DTS
  62. Duration                                 : 1 h 29 min
  63. Bit rate mode                            : Variable
  64. Bit rate                                 : 4 593 kb/s
  65. Channel(s)                               : 8 channels
  66. Channel layout                           : C L R LFE Lb Rb Lss Rss
  67. Sampling rate                            : 48.0 kHz
  68. Frame rate                               : 93.750 FPS (512 SPF)
  69. Bit depth                                : 24 bits
  70. Compression mode                         : Lossless
  71. Stream size                              : 2.88 GiB (10%)
  72. Title                                    : DTS-HD MA 7.1
  73. Language                                 : English
  74. Default                                  : No
  75. Forced                                   : No
  76. Audio #3
  77. ID                                       : 4
  78. ID in the original source medium         : 4352 (0x1100)
  79. Format                                   : AC-3
  80. Format/Info                              : Audio Coding 3
  81. Commercial name                          : Dolby Digital
  82. Codec ID                                 : A_AC3
  83. Duration                                 : 1 h 29 min
  84. Bit rate mode                            : Constant
  85. Bit rate                                 : 384 kb/s
  86. Channel(s)                               : 6 channels
  87. Channel layout                           : L R C LFE Ls Rs
  88. Sampling rate                            : 48.0 kHz
  89. Frame rate                               : 31.250 FPS (1536 SPF)
  90. Compression mode                         : Lossy
  91. Stream size                              : 247 MiB (1%)
  92. Title                                    : DD 5.1
  93. Language                                 : English
  94. Service kind                             : Complete Main
  95. Default                                  : No
  96. Forced                                   : No
  97. Original source medium                   : Blu-ray
  98. Audio #4
  99. ID                                       : 5
  100. ID in the original source medium         : 4353 (0x1101)
  101. Format                                   : DTS XLL
  102. Format/Info                              : Digital Theater Systems
  103. Commercial name                          : DTS-HD Master Audio
  104. Codec ID                                 : A_DTS
  105. Duration                                 : 1 h 29 min
  106. Bit rate mode                            : Variable
  107. Bit rate                                 : 2 026 kb/s
  108. Channel(s)                               : 2 channels
  109. Channel layout                           : L R
  110. Sampling rate                            : 48.0 kHz
  111. Frame rate                               : 93.750 FPS (512 SPF)
  112. Bit depth                                : 24 bits
  113. Compression mode                         : Lossless
  114. Stream size                              : 1.27 GiB (4%)
  115. Title                                    : DTS-HD MA 2.0
  116. Language                                 : English
  117. Default                                  : No
  118. Forced                                   : No
  119. Original source medium                   : Blu-ray
  120. Audio #5
  121. ID                                       : 6
  122. ID in the original source medium         : 4354 (0x1102)
  123. Format                                   : AC-3
  124. Format/Info                              : Audio Coding 3
  125. Commercial name                          : Dolby Digital
  126. Codec ID                                 : A_AC3
  127. Duration                                 : 1 h 29 min
  128. Bit rate mode                            : Constant
  129. Bit rate                                 : 192 kb/s
  130. Channel(s)                               : 2 channels
  131. Channel layout                           : L R
  132. Sampling rate                            : 48.0 kHz
  133. Frame rate                               : 31.250 FPS (1536 SPF)
  134. Compression mode                         : Lossy
  135. Stream size                              : 123 MiB (0%)
  136. Title                                    : DD 2.0
  137. Language                                 : English
  138. Service kind                             : Complete Main
  139. Default                                  : No
  140. Forced                                   : No
  141. Original source medium                   : Blu-ray
  142. Audio #6
  143. ID                                       : 7
  144. ID in the original source medium         : 4355 (0x1103)
  145. Format                                   : AC-3
  146. Format/Info                              : Audio Coding 3
  147. Commercial name                          : Dolby Digital
  148. Codec ID                                 : A_AC3
  149. Duration                                 : 1 h 29 min
  150. Bit rate mode                            : Constant
  151. Bit rate                                 : 192 kb/s
  152. Channel(s)                               : 2 channels
  153. Channel layout                           : L R
  154. Sampling rate                            : 48.0 kHz
  155. Frame rate                               : 31.250 FPS (1536 SPF)
  156. Compression mode                         : Lossy
  157. Stream size                              : 123 MiB (0%)
  158. Title                                    : DD 2.0
  159. Language                                 : English
  160. Service kind                             : Complete Main
  161. Default                                  : No
  162. Forced                                   : No
  163. Original source medium                   : Blu-ray
  164. Text #1
  165. ID                                       : 8
  166. Format                                   : UTF-8
  167. Codec ID                                 : S_TEXT/UTF8
  168. Codec ID/Info                            : UTF-8 Plain Text
  169. Duration                                 : 1 h 21 min
  170. Bit rate                                 : 42 b/s
  171. Frame rate                               : 0.185 FPS
  172. Count of elements                        : 900
  173. Stream size                              : 25.3 KiB (0%)
  174. Language                                 : English
  175. Default                                  : Yes
  176. Forced                                   : No
  177. Text #2
  178. ID                                       : 9
  179. Format                                   : UTF-8
  180. Codec ID                                 : S_TEXT/UTF8
  181. Codec ID/Info                            : UTF-8 Plain Text
  182. Duration                                 : 1 h 27 min
  183. Bit rate                                 : 48 b/s
  184. Frame rate                               : 0.223 FPS
  185. Count of elements                        : 1176
  186. Stream size                              : 31.3 KiB (0%)
  187. Title                                    : SDH
  188. Language                                 : English
  189. Default                                  : No
  190. Forced                                   : No
  191. Text #3
  192. ID                                       : 10
  193. ID in the original source medium         : 4608 (0x1200)
  194. Format                                   : PGS
  195. Muxing mode                              : zlib
  196. Codec ID                                 : S_HDMV/PGS
  197. Codec ID/Info                            : Picture based subtitle format used on BDs/HD-DVDs
  198. Duration                                 : 1 h 27 min
  199. Bit rate                                 : 27.6 kb/s
  200. Frame rate                               : 0.453 FPS
  201. Count of elements                        : 2384
  202. Stream size                              : 17.3 MiB (0%)
  203. Language                                 : English
  204. Default                                  : No
  205. Forced                                   : No
  206. Original source medium                   : Blu-ray
  207. Menu
  208. 00:00:00.000                             : en:Chapter 01
  209. 00:07:13.250                             : en:Chapter 02
  210. 00:14:21.666                             : en:Chapter 03
  211. 00:21:04.583                             : en:Chapter 04
  212. 00:29:22.916                             : en:Chapter 05
  213. 00:37:09.833                             : en:Chapter 06
  214. 00:46:06.833                             : en:Chapter 07
  215. 00:52:26.583                             : en:Chapter 08
  216. 01:00:14.208                             : en:Chapter 09
  217. 01:08:04.041                             : en:Chapter 10
  218. 01:15:32.041                             : en:Chapter 11
  219. 01:21:54.041                             : en:Chapter 12
复制代码

《鬼娃回魂3 Childs.Play.3.1991.REMASTERED.1080p.BluRay.REMUX.AVC.DTS-HD.MA.TrueHD.7.1.Atmos-FGT 28.4 ...

《鬼娃回魂3 Childs.Play.3.1991.REMASTERED.1080p.BluRay.REMUX.AVC.DTS-HD.MA.TrueHD.7.1.Atmos-FGT 28.4 ...

《鬼娃回魂3 Childs.Play.3.1991.REMASTERED.1080p.BluRay.REMUX.AVC.DTS-HD.MA.TrueHD.7.1.Atmos-FGT 28.4 ...

《鬼娃回魂3 Childs.Play.3.1991.REMASTERED.1080p.BluRay.REMUX.AVC.DTS-HD.MA.TrueHD.7.1.Atmos-FGT 28.4 ...







鬼娃回魂3 Childs.Play.3.1991.REMASTERED.1080p.BluRay.REMUX.AVC.DTS-HD.MA.TrueHD.7.1.Atmos-FGT 28.44GB
加入蓝光高清网VIP会员  无限制下载本站所有资源---点这里

资源下载、资源播放、字幕使用、无法下载等常见问题---点这里
回复

使用道具 举报

全部回复0 显示全部楼层

发表回复

您需要登录后才可以回帖 登录 | 立即注册

本版积分规则

开通会员 帮助中心 返回顶部 返回列表